<?xml version="1.0" standalone="no"?>
<!DOCTYPE svg PUBLIC "-//W3C//DTD SVG 1.1//EN" "http://www.w3.org/Graphics/SVG/1.1/DTD/svg11.dtd" >
<svg xmlns="http://www.w3.org/2000/svg" xmlns:xlink="http://www.w3.org/1999/xlink" version="1.1">
<metadata>
Created by FontForge 20190801 at Thu Jan 17 20:33:50 2013
 By www-data
Copyright (c) 2012 by Hannes von Doehren. All rights reserved.
</metadata>
<defs>
<font id="BrandonTextRegularItalic" horiz-adv-x="600" >
  <font-face 
    font-family="BrandonTextRegularItalic"
    font-weight="390"
    font-style="italic"
    font-stretch="normal"
    units-per-em="1000"
    panose-1="2 11 5 3 2 2 3 13 2 3"
    ascent="700"
    descent="-300"
    x-height="462"
    cap-height="700"
    bbox="-150.789 -271 1080 1028.91"
    underline-thickness="50"
    underline-position="-100"
    slope="-8"
    unicode-range="U+000D-FB02"
  />
<missing-glyph horiz-adv-x="599" 
d="M50 30v640q0 30 30 30h439q30 0 30 -30v-640q0 -30 -30 -30h-439q-30 0 -30 30zM262 314q0 -12 14 -12h36q15 0 15 13v26q0 16 16.5 32t36 28.5t36 36.5t16.5 53q0 48 -35.5 79.5t-89.5 31.5q-24 0 -46.5 -6.5t-37 -15t-25.5 -17.5t-16 -15l-5 -7q-8 -12 0 -18l22 -22
q8 -6 17 0q1 1 7.5 7t9.5 9t11.5 8.5t15.5 8.5t18 5.5t22 2.5q29 0 45 -15t16 -37q0 -21 -15.5 -39t-34 -30t-34 -32.5t-15.5 -45.5v-29zM245 156q0 -20 14.5 -34t33.5 -14q20 0 34.5 14t14.5 34t-14.5 34t-34.5 14q-19 0 -33.5 -14t-14.5 -34z" />
    <glyph glyph-name="fi" unicode="fi" horiz-adv-x="549" 
d="M59 -238q-8 0 -13 7t-3 16l83 612h-62q-9 0 -13.5 6.5t-2.5 15.5l3 21q1 10 8 16t15 6h61l6 38q33 210 187 210q85 0 149 -53q13 -9 1 -26l-17 -24q-11 -15 -30 -1q-52 38 -102 38q-91 0 -114 -144l-6 -38h267q8 0 14 -7t4 -15l-59 -418q-1 -9 -8 -15.5t-15 -6.5h-34
q-8 0 -13 6.5t-4 15.5l53 375h-214l-82 -612q-2 -9 -9 -16t-14 -7h-36z" />
    <glyph glyph-name="fl" unicode="fl" horiz-adv-x="567" 
d="M59 -238q-8 0 -13 7t-3 16l83 612h-62q-9 0 -13.5 6.5t-2.5 15.5l3 21q1 9 7.5 15.5t14.5 6.5h62l10 61q16 97 68.5 142t127.5 45q46 0 80 -19t49 -38l15 37q4 10 18 10h21q7 0 11.5 -6.5t3.5 -15.5l-92 -656q-1 -9 -8 -15.5t-15 -6.5h-35q-7 0 -12 6.5t-4 15.5l78 553
q-14 27 -44 48t-67 21q-100 0 -120 -121l-10 -61h119q19 0 17 -22l-4 -21q-4 -22 -23 -22h-119l-82 -612q-2 -9 -9 -16t-14 -7h-36z" />
    <glyph glyph-name="f_f" unicode="ff" horiz-adv-x="640" 
d="M58 -238q-8 0 -13 7t-3 16l85 612h-63q-19 0 -17 22l3 21q1 10 8 16t15 6h63l5 32q16 103 71.5 154.5t141.5 51.5q74 0 126 -41q48 51 122 51q70 0 108 -45q10 -12 0 -26l-18 -24q-13 -16 -28 -1q-30 30 -66 30q-40 0 -61 -26t-30 -91l-9 -65h122q20 0 17 -22l-3 -21
q-4 -22 -23 -22h-122l-85 -612q-2 -9 -9 -16t-15 -7h-35q-8 0 -12.5 7t-2.5 16l85 612h-214l-85 -612q-2 -9 -9 -16t-14 -7h-35zM210 462h214l9 65q7 46 14 66q-10 15 -40 27t-62 12q-109 0 -130 -138z" />
    <glyph glyph-name="f_f_i" unicode="ffi" horiz-adv-x="838" 
d="M201 397l-85 -612q-2 -9 -9 -16t-14 -7h-35q-8 0 -13 7t-3 16l85 612h-63q-19 0 -17 22l3 21q1 10 8 16t15 6h63l5 32q16 103 71.5 154.5t141.5 51.5q75 0 135 -47q54 57 128 57q85 0 149 -53q14 -10 2 -26l-18 -25q-10 -13 -28 -1q-1 1 -6 4.5t-8 5.5t-10 6.5t-12.5 7
t-14 6t-16.5 5t-18 3t-21 1.5q-90 0 -112 -142l-6 -40h268q8 0 13.5 -7t4.5 -15l-60 -418q-1 -9 -8 -15.5t-15 -6.5h-34q-8 0 -13 6.5t-4 15.5l53 375h-214l-82 -612q-1 -9 -8 -16t-15 -7h-37q-7 0 -12 7t-3 16l83 612h-214zM210 462h214l8 54q7 45 21 76q-10 14 -43 27
t-65 13q-109 0 -130 -138z" />
    <glyph glyph-name="f_f_l" unicode="ffl" horiz-adv-x="858" 
d="M345 632q-109 0 -130 -138l-5 -32h215l8 54q7 45 21 76q-15 15 -46 27.5t-63 12.5zM354 700q78 0 138 -47q54 57 136 57q46 0 82.5 -19.5t50.5 -37.5l15 37q4 10 18 10h21q7 0 11.5 -6.5t3.5 -15.5l-92 -656q-4 -22 -23 -22h-35q-8 0 -12.5 6.5t-3.5 15.5l78 553
q-14 27 -44 48t-67 21q-45 0 -78.5 -29t-42.5 -92l-9 -61h119q19 0 17 -22l-4 -21q-4 -22 -23 -22h-119l-82 -612q-1 -9 -8 -16t-15 -7h-39q-7 0 -12 7t-3 16l83 612h-214l-85 -612q-2 -9 -9 -16t-14 -7h-35q-8 0 -13 7t-3 16l85 612h-63q-19 0 -17 22l3 21q1 10 8 16t15 6
h63l5 32q16 103 71.5 154.5t141.5 51.5z" />
    <glyph glyph-name="f_f_h" unicode="ffh" horiz-adv-x="1130" 
d="M345 632q-109 0 -130 -138l-5 -32h215l8 54q7 45 21 76q-15 15 -46 27.5t-63 12.5zM794 700h20q8 0 13 -6.5t4 -15.5l-38 -263l6 5q6 6 9.5 8.5t12.5 9t16 10.5t18 9t21.5 8t24.5 5t28 2q153 0 125 -197l-36 -253q-1 -9 -8 -15.5t-15 -6.5h-35q-8 0 -13 6.5t-4 15.5
l37 254q19 130 -67 130q-21 0 -41.5 -7t-35.5 -16.5t-27 -19.5t-19 -17l-6 -7l-46 -317q-4 -22 -24 -22h-34q-8 0 -12.5 6.5t-3.5 15.5l78 553q-14 27 -44 48t-67 21q-45 0 -78.5 -29t-42.5 -92l-9 -61h119q19 0 17 -22l-4 -21q-4 -22 -23 -22h-119l-82 -612q-1 -9 -8 -16
t-15 -7h-39q-7 0 -12 7t-3 16l83 612h-214l-85 -612q-2 -9 -9 -16t-14 -7h-35q-8 0 -13 7t-3 16l85 612h-63q-19 0 -17 22l3 21q1 10 8 16t15 6h63l5 32q16 103 71.5 154.5t141.5 51.5q78 0 138 -47q54 57 136 57q46 0 82.5 -19.5t50.5 -37.5l15 37q4 10 18 10z" />
    <glyph glyph-name="f_k" unicode="fk" horiz-adv-x="789" 
d="M503 700h20q8 0 13 -6.5t4 -15.5l-53 -391l192 161q19 14 26 14h59q8 0 11 -5.5t1 -12t-7 -10.5l-217 -184l166 -221q6 -6 1.5 -17.5t-16.5 -11.5h-45q-12 0 -19 9l-159 223l-33 -210q-1 -9 -8 -15.5t-14 -6.5h-36q-8 0 -12.5 6.5t-3.5 15.5l78 553q-14 27 -44 48t-67 21
q-100 0 -120 -121l-10 -61h119q19 0 17 -22l-4 -21q-4 -22 -23 -22h-119l-82 -612q-2 -9 -9 -16t-14 -7h-36q-8 0 -13 7t-3 16l83 612h-62q-9 0 -13.5 6.5t-2.5 15.5l3 21q1 9 7.5 15.5t14.5 6.5h62l10 61q16 97 68.5 142t127.5 45q46 0 80 -19t49 -38l15 37q4 10 18 10z
" />
    <glyph glyph-name="f_j" unicode="fj" horiz-adv-x="550" 
d="M350 -57l64 454h-214l-82 -612q-2 -9 -9 -16t-14 -7h-36q-8 0 -13 7t-3 16l83 612h-62q-9 0 -13.5 6.5t-2.5 15.5l3 21q1 10 8 16t15 6h61l6 38q33 210 187 210q85 0 149 -53q13 -9 1 -26l-17 -24q-11 -15 -30 -1q-52 38 -102 38q-91 0 -114 -144l-6 -38h267q8 0 14 -7
t4 -15l-68 -490q-23 -170 -159 -198q-16 -3 -19 12l-7 32q-4 20 18 27q40 14 61.5 39t29.5 81z" />
    <glyph glyph-name="f_f_j" unicode="ffj" horiz-adv-x="839" 
d="M210 462h214l8 54q7 45 21 76q-10 14 -43 27t-65 13q-109 0 -130 -138zM639 -57l64 454h-214l-82 -612q-1 -9 -8 -16t-15 -7h-37q-7 0 -12 7t-3 16l83 612h-214l-85 -612q-2 -9 -9 -16t-14 -7h-35q-8 0 -13 7t-3 16l85 612h-63q-19 0 -17 22l3 21q1 10 8 16t15 6h63l5 32
q16 103 71.5 154.5t141.5 51.5q75 0 135 -47q54 57 128 57q85 0 149 -53q14 -10 2 -26l-18 -25q-10 -13 -28 -1q-1 1 -6 4.5t-8 5.5t-10 6.5t-12.5 7t-14 6t-16.5 5t-18 3t-21 1.5q-90 0 -112 -142l-6 -40h268q8 0 14 -7t4 -15l-70 -490q-25 -170 -158 -198q-16 -3 -19 12
l-7 32q-4 20 18 27q40 14 61.5 39t29.5 81z" />
    <glyph glyph-name="f_b" unicode="fb" horiz-adv-x="846" 
d="M503 700h22q8 0 13 -6.5t4 -15.5l-34 -232q1 0 6.5 2.5t15.5 6.5t22.5 8t30.5 6.5t37 2.5q73 0 120.5 -59t47.5 -145q0 -118 -64.5 -198.5t-161.5 -80.5q-35 0 -65 15t-43 30l-12 15l-11 -30q-7 -19 -21 -19h-21q-7 0 -12 6.5t-4 15.5l78 553q-14 27 -44 48t-67 21
q-100 0 -120 -121l-10 -61h119q19 0 17 -22l-4 -21q-4 -22 -23 -22h-119l-82 -612q-2 -9 -9 -16t-14 -7h-36q-8 0 -13 7t-3 16l83 612h-62q-9 0 -13.5 6.5t-2.5 15.5l3 21q1 9 7.5 15.5t14.5 6.5h62l10 61q16 97 68.5 142t127.5 45q46 0 80 -19t49 -38l15 37q4 10 18 10z
M463 132q1 -3 3.5 -8.5t11.5 -18.5t19.5 -23t28.5 -18.5t38 -8.5q61 0 105 59.5t44 142.5q0 60 -32 104.5t-81 44.5q-26 0 -52 -8.5t-40 -17.5l-13 -8z" />
    <glyph glyph-name="f_f_k" unicode="ffk" horiz-adv-x="1079" 
d="M345 632q-109 0 -130 -138l-5 -32h215l8 54q7 45 21 76q-15 15 -46 27.5t-63 12.5zM794 700h19q8 0 13 -6.5t4 -15.5l-53 -391l192 161q19 14 26 14h59q8 0 11 -5.5t1 -12t-7 -10.5l-217 -184l166 -221q6 -6 1.5 -17.5t-16.5 -11.5h-45q-12 0 -19 9l-159 223l-33 -210
q-1 -9 -8 -15.5t-14 -6.5h-35q-8 0 -12.5 6.5t-3.5 15.5l78 553q-14 27 -44 48t-67 21q-45 0 -78.5 -29t-42.5 -92l-9 -61h119q19 0 17 -22l-4 -21q-4 -22 -23 -22h-119l-82 -612q-1 -9 -8 -16t-15 -7h-39q-7 0 -12 7t-3 16l83 612h-214l-85 -612q-2 -9 -9 -16t-14 -7h-35
q-8 0 -13 7t-3 16l85 612h-63q-19 0 -17 22l3 21q1 10 8 16t15 6h63l5 32q16 103 71.5 154.5t141.5 51.5q78 0 138 -47q54 57 136 57q46 0 82.5 -19.5t50.5 -37.5l15 37q4 10 18 10z" />
    <glyph glyph-name="f_h" unicode="fh" horiz-adv-x="839" 
d="M503 700h20q8 0 13 -6.5t4 -15.5l-38 -263l6 5q6 6 9.5 8.5t12.5 9t16 10.5t18 9t21.5 8t24.5 5t28 2q153 0 125 -197l-36 -253q-1 -9 -8 -15.5t-15 -6.5h-35q-8 0 -13 6.5t-4 15.5l37 254q19 130 -67 130q-21 0 -41.5 -7t-35.5 -16.5t-27 -19.5t-18 -17l-7 -7l-46 -317
q-4 -22 -24 -22h-34q-8 0 -12.5 6.5t-3.5 15.5l78 553q-14 27 -44 48t-67 21q-100 0 -120 -121l-10 -61h119q19 0 17 -22l-4 -21q-4 -22 -23 -22h-119l-82 -612q-2 -9 -9 -16t-14 -7h-36q-8 0 -13 7t-3 16l83 612h-62q-9 0 -13.5 6.5t-2.5 15.5l3 21q1 9 7.5 15.5t14.5 6.5
h62l10 61q16 97 68.5 142t127.5 45q46 0 80 -19t49 -38l15 37q4 10 18 10z" />
    <glyph glyph-name="f_f_b" unicode="ffb" horiz-adv-x="1138" 
d="M345 632q-109 0 -130 -138l-5 -32h215l8 54q7 45 21 76q-15 15 -46 27.5t-63 12.5zM794 700h23q8 0 13 -6.5t4 -15.5l-34 -232q1 0 6.5 2.5t15.5 6.5t22.5 8t30.5 6.5t37 2.5q73 0 120.5 -59t47.5 -145q0 -118 -64.5 -198.5t-161.5 -80.5q-35 0 -65 15t-43 30l-12 15
l-11 -30q-7 -19 -21 -19h-22q-8 0 -12.5 6.5t-3.5 15.5l78 553q-14 27 -44 48t-67 21q-45 0 -78.5 -29t-42.5 -92l-9 -61h119q19 0 17 -22l-4 -21q-4 -22 -23 -22h-119l-82 -612q-1 -9 -8 -16t-15 -7h-39q-7 0 -12 7t-3 16l83 612h-214l-85 -612q-2 -9 -9 -16t-14 -7h-35
q-8 0 -13 7t-3 16l85 612h-63q-19 0 -17 22l3 21q1 10 8 16t15 6h63l5 32q16 103 71.5 154.5t141.5 51.5q78 0 138 -47q54 57 136 57q46 0 82.5 -19.5t50.5 -37.5l15 37q4 10 18 10zM755 132q1 -3 3.5 -8.5t11.5 -18.5t19.5 -23t28.5 -18.5t38 -8.5q61 0 105 59.5t44 142.5
q0 60 -32 104.5t-81 44.5q-26 0 -52 -8.5t-40 -17.5l-13 -8z" />
    <glyph glyph-name=".notdef" horiz-adv-x="599" 
d="M50 30v640q0 30 30 30h439q30 0 30 -30v-640q0 -30 -30 -30h-439q-30 0 -30 30zM262 314q0 -12 14 -12h36q15 0 15 13v26q0 16 16.5 32t36 28.5t36 36.5t16.5 53q0 48 -35.5 79.5t-89.5 31.5q-24 0 -46.5 -6.5t-37 -15t-25.5 -17.5t-16 -15l-5 -7q-8 -12 0 -18l22 -22
q8 -6 17 0q1 1 7.5 7t9.5 9t11.5 8.5t15.5 8.5t18 5.5t22 2.5q29 0 45 -15t16 -37q0 -21 -15.5 -39t-34 -30t-34 -32.5t-15.5 -45.5v-29zM245 156q0 -20 14.5 -34t33.5 -14q20 0 34.5 14t14.5 34t-14.5 34t-34.5 14q-19 0 -33.5 -14t-14.5 -34z" />
    <glyph glyph-name=".null" horiz-adv-x="0" 
 />
    <glyph glyph-name=".null" horiz-adv-x="0" 
 />
    <glyph glyph-name="nonmarkingreturn" horiz-adv-x="333" 
 />
    <glyph glyph-name="CR" unicode="&#xd;" horiz-adv-x="0" 
 />
    <glyph glyph-name="space" unicode=" " horiz-adv-x="240" 
 />
    <glyph glyph-name="exclam" unicode="!" horiz-adv-x="256" 
d="M119 272q-6 0 -10.5 5t-4.5 11l20 279l16 114q1 7 6.5 13t12.5 6h54q7 0 11.5 -5.5t3.5 -13.5l-16 -112l-60 -281q-4 -16 -19 -16h-14zM39 40q0 26 19 45t44 19q21 0 34.5 -14.5t13.5 -35.5q0 -26 -19 -45t-45 -19q-20 0 -33.5 14.5t-13.5 35.5z" />
    <glyph glyph-name="quotedbl" unicode="&#x22;" horiz-adv-x="325" 
d="M249 501q-7 0 -11 6t-3 13l22 161q4 19 20 19h37q9 0 13 -7t0 -18l-49 -159q-6 -15 -19 -15h-10zM110 501q-7 0 -11 5.5t-3 13.5l23 161q1 7 6.5 13t12.5 6h38q9 0 12.5 -7t-0.5 -18l-49 -159q-6 -15 -18 -15h-11z" />
    <glyph glyph-name="numbersign" unicode="#" horiz-adv-x="520" 
d="M74 22l46 173h-63q-7 0 -11.5 5.5t-2.5 13.5l1 7q1 8 6.5 13.5t12.5 5.5h70l45 171h-64q-7 0 -11.5 5.5t-3.5 13.5l1 7q4 19 20 19h70l61 228q4 16 18 16h8q8 0 11.5 -6.5t1.5 -15.5l-58 -222h137l59 228q2 6 8 11t12 5h6q8 0 12.5 -6.5t1.5 -15.5l-58 -222h62
q7 0 11.5 -5.5t2.5 -13.5l-1 -7q-2 -19 -18 -19h-69l-45 -171h63q7 0 11 -5.5t3 -13.5l-1 -7q-1 -8 -6 -13.5t-12 -5.5h-71l-48 -179q-4 -16 -20 -16h-6q-8 0 -12 6.5t-2 15.5l47 173h-138l-48 -179q-4 -16 -19 -16h-6q-9 0 -12.5 6.5t-1.5 15.5zM174 240h138l45 171h-137z
" />
    <glyph glyph-name="dollar" unicode="$" 
d="M81 76q-12 15 2 29l20 21q19 19 32 5q51 -63 115 -73l37 258q-5 4 -22.5 16.5t-23 16t-20.5 15t-19.5 17t-16 16.5t-16 18.5t-11.5 19t-9.5 22t-5 24t-2.5 27.5q0 72 50.5 134t150.5 67l5 32q1 8 6.5 13.5t12.5 5.5h7q7 0 11 -5.5t3 -13.5l-5 -32q73 -7 131 -50
q18 -15 1 -34l-15 -17q-18 -21 -33 -9q-45 35 -93 42l-37 -261q76 -43 113.5 -85.5t37.5 -108.5q0 -81 -57.5 -136.5t-149.5 -59.5l-14 -103q-3 -18 -22 -18q-8 0 -13.5 5t-4.5 13l15 105q-43 4 -82 24.5t-53.5 34t-24.5 25.5zM299 402l34 240q-54 -7 -85 -46t-31 -79
q0 -66 82 -115zM290 58q46 5 80.5 40.5t34.5 79.5q0 35 -20 62.5t-61 55.5z" />
    <glyph glyph-name="percent" unicode="%" horiz-adv-x="619" 
d="M189 440q-42 0 -73 34.5t-31 82.5q0 64 41 108.5t101 44.5q43 0 73.5 -34t30.5 -83q0 -63 -42.5 -108t-99.5 -45zM88 27l402 663q6 10 16 10h24q10 0 13.5 -8.5t-2.5 -18.5l-404 -663q-5 -10 -16 -10h-22q-10 0 -13.5 8.5t2.5 18.5zM197 497q30 0 53 26t23 62
q0 27 -15.5 46.5t-38.5 19.5q-31 0 -54.5 -26t-23.5 -62q0 -28 16 -47t40 -19zM308 107q0 64 41 108.5t101 44.5q43 0 73.5 -34t30.5 -83q0 -63 -42 -108t-100 -45q-42 0 -73 34.5t-31 82.5zM364 113q0 -28 16 -47t40 -19q30 0 53 26t23 62q0 27 -15.5 46.5t-38.5 19.5
q-31 0 -54.5 -26t-23.5 -62z" />
    <glyph glyph-name="ampersand" unicode="&#x26;" horiz-adv-x="614" 
d="M51 148q0 35 12 68t26.5 54.5t41 45.5t39.5 33.5t37 26.5l-19 26q-43 63 -43 124q0 73 51 128.5t129 55.5q63 0 102 -39t39 -94q0 -21 -5.5 -41t-11.5 -34.5t-21 -32.5l-22.5 -27t-28 -25.5t-26 -20.5l-27.5 -20l-23 -15l116 -160q46 75 63 179q1 9 4 13.5t6.5 5.5
t11.5 1h33q16 0 13 -23q-8 -57 -32.5 -120.5t-53.5 -107.5l73 -94q6 -9 8.5 -14t-0.5 -14.5t-16 -17.5l-13 -10q-23 -16 -37 4l-60 82q-3 -4 -9.5 -10.5t-28 -22.5t-44 -28.5t-56 -23t-67.5 -10.5q-69 0 -115 47t-46 111zM266 411q2 2 23 15.5t30 20.5t27 22.5t26.5 28.5
t16 31.5t7.5 37.5q0 34 -21 59t-58 25q-44 0 -75 -39t-31 -86q0 -42 38 -93zM122 156q0 -45 26 -72.5t71 -27.5q41 0 80.5 21t58.5 41l19 21l-132 190q-25 -17 -39.5 -28.5t-37.5 -34.5t-34.5 -51t-11.5 -59z" />
    <glyph glyph-name="quotesingle" unicode="'" horiz-adv-x="185" 
d="M110 501q-7 0 -11 5.5t-3 13.5l23 161q1 7 6.5 13t12.5 6h38q19 0 12 -25l-49 -159q-6 -15 -18 -15h-11z" />
    <glyph glyph-name="parenleft" unicode="(" horiz-adv-x="326" 
d="M56 208q0 107 17 193t44.5 141t65 93t75 54.5t77.5 18.5q15 2 15 -10l-2 -27q0 -15 -12 -17q-210 -46 -210 -448q0 -203 115 -230q12 -2 7 -17l-6 -27q-3 -12 -18 -10q-31 2 -59 18.5t-53.5 48.5t-40.5 88.5t-15 130.5z" />
    <glyph glyph-name="parenright" unicode=")" horiz-adv-x="326" 
d="M-1 -24q210 47 210 448q0 203 -115 230q-12 2 -7 17l6 27q3 12 18 10q66 -4 117 -74.5t51 -211.5q0 -107 -17 -193t-44.5 -141t-65 -93t-75 -54.5t-77.5 -18.5q-15 -2 -15 10l2 27q0 15 12 17z" />
    <glyph glyph-name="asterisk" unicode="*" horiz-adv-x="390" 
d="M203 407q-7 0 -11.5 5.5t-2.5 13.5l13 85l-70 -50q-12 -9 -23 6l-7 11q-9 16 10 28l77 48l-66 48q-12 10 0 27l10 14q12 16 24 4l58 -51l10 86q1 7 6.5 12.5t12.5 5.5h16q7 0 11 -5.5t3 -12.5l-13 -85l70 52q14 8 24 -6l6 -12q8 -15 -8 -27l-80 -50l66 -50q12 -12 1 -27
l-9 -12q-5 -7 -13 -8.5t-13 2.5l-57 51l-10 -84q-1 -8 -6.5 -13.5t-12.5 -5.5h-16z" />
    <glyph glyph-name="plus" unicode="+" 
d="M249 157l23 157h-140q-7 0 -11 5.5t-3 13.5l4 28q1 7 6.5 13t12.5 6h140l22 158q1 7 7 12.5t13 5.5h31q16 0 14 -18l-22 -158h140q7 0 11 -5.5t3 -13.5l-4 -28q-1 -7 -6.5 -13t-12.5 -6h-140l-22 -157q-1 -7 -7 -12.5t-13 -5.5h-31q-7 0 -11.5 5.5t-3.5 12.5z" />
    <glyph glyph-name="comma" unicode="," horiz-adv-x="237" 
d="M23 42q0 27 18 47.5t46 20.5q30 0 46 -23t16 -60q0 -107 -94 -194q-9 -9 -16 -1l-16 17q-7 8 3 18q74 70 74 128q0 7 -1 14q-14 -9 -35 -9q-20 0 -30.5 12.5t-10.5 29.5z" />
    <glyph glyph-name="hyphen" unicode="-" horiz-adv-x="363" 
d="M77 220q-8 0 -12 5.5t-3 12.5l3 19q3 19 20 19h191q17 0 14 -19l-3 -19q-4 -18 -20 -18h-190z" />
    <glyph glyph-name="period" unicode="." horiz-adv-x="237" 
d="M23 46q0 31 22 52.5t51 21.5q24 0 39.5 -17t15.5 -41q0 -30 -22 -51.5t-52 -21.5q-23 0 -38.5 16.5t-15.5 40.5z" />
    <glyph glyph-name="slash" unicode="/" horiz-adv-x="357" 
d="M37 0q-9 0 -13 7.5t0 17.5l270 662q6 13 18 13h27q10 0 13.5 -7t-0.5 -18l-269 -662q-6 -13 -18 -13h-28z" />
    <glyph glyph-name="zero" unicode="0" horiz-adv-x="605" 
d="M262 -9q-86 0 -135.5 73t-49.5 197q0 204 76.5 326.5t210.5 122.5q85 0 134 -72t49 -196q0 -206 -75.5 -328.5t-209.5 -122.5zM271 58q93 0 144.5 103.5t51.5 277.5q0 204 -114 204q-92 0 -144 -104t-52 -276q0 -97 28.5 -151t85.5 -54z" />
    <glyph glyph-name="one" unicode="1" horiz-adv-x="330" 
d="M190 571h-3l-83 -62q-14 -11 -20 1l-15 24q-4 9 3 16l156 143q7 7 17 7h22q7 0 11 -5.5t3 -13.5l-94 -661q-1 -8 -6.5 -14t-12.5 -6h-40q-18 0 -16 20z" />
    <glyph glyph-name="two" unicode="2" horiz-adv-x="514" 
d="M133 69v-2h262q7 0 12 -6t4 -14l-4 -27q-1 -8 -7.5 -14t-13.5 -6h-354q-8 0 -12.5 6t-2.5 14l3 20q2 10 8 17l258 264q116 120 116 207q0 45 -26 78.5t-82 33.5q-62 0 -138 -78q-12 -12 -24 0l-20 20q-4 5 -3.5 13t5.5 14q90 101 192 101q83 0 129.5 -49t46.5 -121
t-35 -128.5t-110 -133.5z" />
    <glyph glyph-name="three" unicode="3" horiz-adv-x="526" 
d="M31 81q-10 14 5 25l29 21q11 8 23 -5q55 -68 128 -68q60 0 103.5 38.5t43.5 104.5q0 51 -35.5 85.5t-105.5 34.5h-51q-18 0 -15 23l3 25q3 22 23 22h52q76 0 118 41t42 103q0 50 -29 80.5t-71 30.5q-69 0 -125 -67q-13 -14 -25 -2l-24 19q-10 8 4 27q15 18 27.5 30.5
t34 28t51 24t65.5 8.5q73 0 122.5 -46.5t49.5 -124.5q0 -60 -38.5 -111.5t-82.5 -72.5v-3q33 -16 61.5 -56.5t28.5 -89.5q0 -92 -65 -154t-172 -62q-113 0 -175 91z" />
    <glyph glyph-name="four" unicode="4" horiz-adv-x="582" 
d="M35 159q-18 0 -16 19l4 28q1 10 8 18l402 473q10 13 27 13h21q7 0 11 -6t3 -14l-65 -468h75q17 0 15 -18l-3 -26q-1 -7 -7 -13t-14 -6h-74l-20 -139q-4 -20 -20 -20h-39q-8 0 -12 6t-3 14l20 139h-313zM115 226v-4h245l51 354h-3z" />
    <glyph glyph-name="five" unicode="5" horiz-adv-x="529" 
d="M47 75q-14 22 3 35l25 20q7 6 13 5t13 -11q45 -68 121 -68q71 0 119.5 57.5t48.5 135.5q0 54 -30.5 89t-89.5 35h-142q-13 0 -19.5 11t-4.5 25l39 272q2 19 20 19h282q7 0 12 -5.5t3 -13.5l-5 -30q-4 -20 -20 -20h-230l-27 -189h103q88 0 137 -47.5t49 -130.5
q0 -118 -71 -196t-181 -78q-64 0 -106 26.5t-62 58.5z" />
    <glyph glyph-name="six" unicode="6" horiz-adv-x="542" 
d="M62 221q0 91 29.5 170.5t70.5 131t96 94.5t95.5 64t80.5 36q15 5 20 -10l9 -28q7 -21 -20 -30q-21 -7 -55 -26t-77 -49.5t-81.5 -76.5t-56.5 -94l9 5q8 4 21.5 11t30 14t38.5 11.5t43 4.5q71 0 120 -53t49 -137q0 -110 -72 -189.5t-170 -79.5q-90 0 -135 64.5t-45 166.5z
M251 58q63 0 111.5 56t48.5 131q0 58 -32.5 97.5t-82.5 39.5q-17 0 -34 -3.5t-31 -9.5t-27.5 -13.5t-23.5 -14.5t-17.5 -13t-11.5 -10l-4 -3q-12 -43 -12 -93q0 -70 28.5 -117t87.5 -47z" />
    <glyph glyph-name="seven" unicode="7" horiz-adv-x="470" 
d="M398 628v3h-296q-7 0 -11.5 6t-3.5 14l4 30q1 7 7.5 13t13.5 6h374q15 0 15 -16q0 -8 -9 -25l-365 -643q-6 -11 -10 -13.5t-13 -2.5h-38q-9 0 -12 6t4 22z" />
    <glyph glyph-name="eight" unicode="8" horiz-adv-x="562" 
d="M55 162q0 71 45 123t94 75v4q-29 16 -52 54t-23 84q0 90 64.5 149t157.5 59q76 0 123 -44.5t47 -117.5q0 -66 -37.5 -114.5t-82.5 -69.5l-1 -4q33 -16 61.5 -57.5t28.5 -94.5q0 -91 -67.5 -154.5t-173.5 -63.5q-85 0 -134.5 48.5t-49.5 123.5zM297 397q67 7 101.5 45.5
t34.5 96.5q0 49 -28.5 79t-75.5 30q-54 0 -93.5 -41.5t-39.5 -105.5q0 -43 25 -70.5t76 -33.5zM134 164q0 -50 32.5 -81.5t80.5 -31.5q64 0 108.5 40t44.5 106q0 45 -30 81t-83 42q-69 -8 -111 -53.5t-42 -102.5z" />
    <glyph glyph-name="nine" unicode="9" horiz-adv-x="542" 
d="M98 24q-7 20 20 29q21 8 54.5 27t76.5 49.5t82 76.5t57 94l-8 -5q-8 -5 -21.5 -12t-30.5 -13.5t-39 -11.5t-42 -5q-69 0 -119.5 53.5t-50.5 137.5q0 112 71.5 189t170.5 77q87 0 133.5 -64t46.5 -164q0 -91 -29 -170.5t-70 -131t-96.5 -94.5t-96 -64t-81.5 -37
q-14 -5 -19 11zM264 320q23 0 47 7t41.5 16.5t32 19.5t22.5 17l8 7q12 42 12 91q0 70 -28.5 117t-88.5 47q-63 0 -111 -55t-48 -130q0 -58 31.5 -97.5t81.5 -39.5z" />
    <glyph glyph-name="colon" unicode=":" horiz-adv-x="264" 
d="M140 340q-23 0 -38.5 17t-15.5 41q0 30 22 52t50 22q23 0 38 -16.5t15 -40.5q0 -30 -21.5 -52.5t-49.5 -22.5zM37 46q0 31 21.5 52.5t49.5 21.5q23 0 38.5 -16.5t15.5 -39.5q0 -31 -21.5 -53t-50.5 -22q-23 0 -38 16.5t-15 40.5z" />
    <glyph glyph-name="semicolon" unicode=";" horiz-adv-x="270" 
d="M138 340q-23 0 -38.5 17t-15.5 41q0 30 22 52t50 22q23 0 38 -16.5t15 -40.5q0 -30 -21.5 -52.5t-49.5 -22.5zM44 42q0 27 18 47.5t46 20.5q30 0 46 -23t16 -60q0 -108 -94 -194q-9 -9 -16 -1l-16 17q-7 8 3 18q72 68 72 128q0 7 -1 14q-14 -9 -33 -9q-20 0 -30.5 12.5
t-10.5 29.5z" />
    <glyph glyph-name="less" unicode="&#x3c;" 
d="M115 210q-10 8 -8 17l1 7q1 8 12 15l336 212q12 7 21 2t7 -18l-5 -39q-2 -11 -15 -19l-258 -161l214 -153q11 -6 9 -19l-6 -38q-1 -11 -12 -14.5t-19 3.5z" />
    <glyph glyph-name="equal" unicode="=" 
d="M172 351q-7 0 -11 5.5t-3 13.5l4 30q4 19 20 19h273q7 0 11.5 -5.5t2.5 -13.5l-4 -30q-1 -8 -7 -13.5t-13 -5.5h-273zM143 140q-7 0 -11.5 5.5t-3.5 13.5l5 31q1 8 6.5 13.5t12.5 5.5h273q7 0 11.5 -5.5t3.5 -13.5l-5 -31q-1 -8 -6.5 -13.5t-12.5 -5.5h-273z" />
    <glyph glyph-name="greater" unicode="&#x3e;" 
d="M101 20l5 39q1 12 14 19l259 155l-214 161q-11 9 -10 19l5 32q2 13 12.5 18t20.5 -2l276 -212q9 -8 8 -15l-1 -8q-1 -8 -13 -16l-335 -205q-11 -7 -20 -2.5t-7 17.5z" />
    <glyph glyph-name="question" unicode="?" horiz-adv-x="438" 
d="M182 272q-16 0 -14 19l6 42q2 17 8 32t11 24.5t17.5 22t17 16.5t21 17t18.5 15t21 16.5t24 19.5t16 18.5t14.5 27t3.5 31.5q0 31 -22 53t-59 22q-17 0 -32.5 -4t-26.5 -9t-23 -14.5t-17.5 -15t-15 -15.5t-11.5 -12q-11 -11 -23 -1l-18 15q-12 11 0 30q6 9 15 19t30.5 28
t56.5 29.5t77 11.5q61 0 100.5 -36.5t39.5 -95.5q0 -39 -18.5 -72.5t-36 -49t-51.5 -41.5q-23 -17 -33 -25.5t-22 -24t-14 -32.5l-6 -41q-3 -20 -21 -20h-33zM120 40q0 26 19.5 45t44.5 19q21 0 34 -14.5t13 -35.5q0 -26 -19 -45t-44 -19q-21 0 -34.5 14.5t-13.5 35.5z" />
    <glyph glyph-name="at" unicode="@" horiz-adv-x="905" 
d="M47 144q0 86 20.5 168.5t62 154t99 126t136.5 86t170 31.5q155 0 243.5 -89t88.5 -238q0 -59 -13.5 -119t-40 -116.5t-74.5 -92t-110 -35.5q-73 0 -90 78h-1q-19 -32 -56 -55t-77 -23q-61 0 -97.5 44.5t-36.5 120.5q0 58 20.5 114.5t68 98.5t110.5 42q27 0 50.5 -11
t33.5 -23l10 -11l7 20q4 10 7.5 12.5t13.5 2.5h19q6 0 10.5 -6t3.5 -13l-29 -213q-16 -120 44 -120q43 0 76.5 32.5t51.5 82.5t27 98.5t9 89.5q0 126 -70 199.5t-205 73.5q-126 0 -223.5 -75t-146.5 -188t-49 -240q0 -111 50 -192.5t136 -125.5q14 -9 7 -25l-14 -27
q-9 -16 -23 -8q-101 51 -160 147t-59 224zM339 186q0 -48 21 -75t53 -27q39 0 72 36t41 70l18 123q-2 7 -6.5 17t-25 26.5t-48.5 16.5q-48 0 -86.5 -51t-38.5 -136z" />
    <glyph glyph-name="A" unicode="A" horiz-adv-x="615" 
d="M-9 0q-10 0 -13.5 8t1.5 18l369 673q6 11 17 11h9q10 0 14 -11l178 -673q2 -10 -3.5 -18t-15.5 -8h-42q-13 0 -15 11l-40 165h-312l-85 -165q-7 -11 -19 -11h-43zM175 238h256l-79 328h-6z" />
    <glyph glyph-name="B" unicode="B" horiz-adv-x="579" 
d="M420 355v-3q85 -46 85 -136q0 -94 -61.5 -155t-163.5 -61h-207q-7 0 -11.5 5.5t-3.5 13.5l93 662q4 19 20 19h199q72 0 116.5 -46t44.5 -113q0 -68 -31 -114.5t-80 -71.5zM185 386h139q55 0 88.5 40.5t33.5 106.5q0 45 -23 71.5t-65 26.5h-138zM139 67h155q52 0 89.5 42
t37.5 100q0 46 -30.5 77t-76.5 31h-140z" />
    <glyph glyph-name="C" unicode="C" horiz-adv-x="648" 
d="M61 301q0 170 109 289.5t270 119.5q118 0 205 -93q5 -5 4.5 -14t-7.5 -14l-29 -23q-12 -10 -26 5q-61 67 -157 67q-114 0 -200.5 -98.5t-86.5 -229.5q0 -102 58 -174.5t148 -72.5q53 0 92 19t82 59q13 13 22 3l31 -30q12 -12 -4 -27q-101 -97 -233 -97
q-113 0 -195.5 91.5t-82.5 219.5z" />
    <glyph glyph-name="D" unicode="D" horiz-adv-x="687" 
d="M58 19l93 662q1 7 6.5 13t12.5 6h203q115 0 193 -91.5t78 -212.5q0 -164 -106.5 -280t-262.5 -116h-204q-7 0 -11 5.5t-2 13.5zM141 69h131q122 0 206 90t84 235q0 105 -58 171.5t-152 66.5h-132z" />
    <glyph glyph-name="E" unicode="E" horiz-adv-x="534" 
d="M58 19l93 662q1 7 6.5 13t12.5 6h357q7 0 11.5 -5.5t2.5 -13.5l-4 -29q-1 -8 -7 -13.5t-13 -5.5h-296l-35 -244h253q7 0 11 -6t3 -13l-4 -29q-1 -8 -6.5 -13.5t-12.5 -5.5h-253l-36 -255h297q7 0 11.5 -5.5t2.5 -13.5l-4 -29q-1 -8 -7 -13.5t-13 -5.5h-356
q-7 0 -11.5 5.5t-2.5 13.5z" />
    <glyph glyph-name="F" unicode="F" horiz-adv-x="518" 
d="M58 19l93 662q1 7 6.5 13t12.5 6h357q7 0 11.5 -5.5t2.5 -13.5l-4 -29q-1 -8 -7 -13.5t-13 -5.5h-296l-39 -274h253q7 0 11 -6t3 -13l-4 -29q-1 -7 -7 -13t-13 -6h-252l-39 -273q-1 -8 -6.5 -13.5t-12.5 -5.5h-43q-7 0 -11.5 5.5t-2.5 13.5z" />
    <glyph glyph-name="G" unicode="G" horiz-adv-x="677" 
d="M61 301q0 170 109 289.5t270 119.5q119 0 206 -93q5 -5 4.5 -14t-7.5 -14l-35 -29q-12 -10 -26 5q-27 31 -67.5 52t-82.5 21q-114 0 -200.5 -97t-86.5 -228q0 -103 57.5 -176t147.5 -73q25 0 50.5 4.5t44 10.5t33 12t22.5 11l9 4l20 143h-99q-7 0 -11.5 5t-2.5 13l5 34
q2 19 20 19h158q6 0 10.5 -5t3.5 -12l-32 -233q-2 -12 -10 -16q-11 -7 -31.5 -17.5t-81.5 -28.5t-119 -18q-115 0 -196.5 91t-81.5 220z" />
    <glyph glyph-name="H" unicode="H" horiz-adv-x="698" 
d="M58 19l93 662q4 19 20 19h43q7 0 11.5 -5.5t3.5 -13.5l-42 -292h354l41 292q4 19 20 19h43q7 0 11 -6t3 -13l-93 -662q-1 -7 -6.5 -13t-12.5 -6h-43q-7 0 -11.5 5.5t-3.5 13.5l43 303h-354l-43 -303q-1 -8 -6.5 -13.5t-12.5 -5.5h-43q-7 0 -11.5 5.5t-3.5 13.5z" />
    <glyph glyph-name="I" unicode="I" horiz-adv-x="267" 
d="M58 19l93 662q1 7 6.5 13t12.5 6h44q7 0 11 -6t3 -13l-93 -662q-1 -8 -6.5 -13.5t-12.5 -5.5h-44q-7 0 -11 6t-3 13z" />
    <glyph glyph-name="J" unicode="J" horiz-adv-x="435" 
d="M-4 62q-9 16 4 27l22 20q16 13 31 -6q37 -45 85 -45q40 0 73 32t43 105l69 486q1 8 7 13.5t13 5.5h43q7 0 11.5 -5.5t2.5 -13.5l-68 -484q-29 -207 -199 -207q-50 0 -85.5 23.5t-51.5 48.5z" />
    <glyph glyph-name="K" unicode="K" horiz-adv-x="557" 
d="M58 24l92 652q4 24 25 24h34q9 0 14.5 -7t4.5 -17l-41 -285l315 299q8 10 18 10h52q13 0 17.5 -10.5t-6.5 -21.5l-327 -308l238 -334q6 -5 1.5 -15.5t-18.5 -10.5h-48q-13 0 -15 7l-234 333l-44 -316q-2 -10 -9 -17t-16 -7h-34q-9 0 -14.5 7t-4.5 17z" />
    <glyph glyph-name="L" unicode="L" horiz-adv-x="459" 
d="M58 19l93 662q4 19 20 19h43q7 0 11.5 -5.5t3.5 -13.5l-87 -614h255q7 0 11 -5.5t3 -13.5l-4 -29q-4 -19 -20 -19h-314q-7 0 -11.5 5.5t-3.5 13.5z" />
    <glyph glyph-name="M" unicode="M" horiz-adv-x="797" 
d="M18 24l209 672q4 14 21 14h14q16 0 18 -11l97 -549h2l253 549q6 11 19 11h14q18 0 18 -14l22 -672q0 -24 -23 -24h-35q-18 0 -18 14l-10 500h-1l-235 -513q-5 -11 -19 -11h-13q-16 0 -18 11l-92 522h-1l-151 -509q-4 -14 -21 -14h-35q-22 0 -15 24z" />
    <glyph glyph-name="N" unicode="N" horiz-adv-x="709" 
d="M58 19l94 673q2 18 22 18h15q9 0 15 -9l317 -552h1l75 532q1 8 7.5 13.5t15.5 5.5h32q8 0 13 -5.5t4 -13.5l-95 -673q-2 -18 -22 -18h-15q-9 0 -15 9l-318 562h-2l-73 -542q-1 -7 -8 -13t-15 -6h-32q-18 0 -16 19z" />
    <glyph glyph-name="O" unicode="O" horiz-adv-x="761" 
d="M341 -10q-120 0 -201 88t-81 218q0 167 114 290.5t265 123.5q119 0 200.5 -88t81.5 -218q0 -169 -112.5 -291.5t-266.5 -122.5zM349 60q116 0 207.5 101t91.5 234q0 104 -61.5 174.5t-156.5 70.5q-116 0 -207.5 -102t-91.5 -234q0 -104 61.5 -174t156.5 -70z" />
    <glyph glyph-name="P" unicode="P" horiz-adv-x="556" 
d="M58 19l93 662q4 19 20 19h201q76 0 124.5 -57.5t48.5 -135.5q0 -108 -67.5 -180.5t-167.5 -72.5h-142l-33 -235q-4 -19 -20 -19h-42q-7 0 -11.5 5.5t-3.5 13.5zM178 326h137q67 0 110 49.5t43 124.5q0 54 -30 89t-81 35h-137z" />
    <glyph glyph-name="Q" unicode="Q" horiz-adv-x="760" 
d="M340 -10q-119 0 -200 87.5t-81 217.5q0 73 28 147t76.5 133.5t120.5 97t153 37.5q120 0 201.5 -88.5t81.5 -218.5q0 -120 -65 -226t-177 -159l79 -186q5 -11 -1 -20.5t-21 -9.5h-42q-12 0 -19 16l-68 177q-26 -5 -66 -5zM348 60q121 0 210.5 103.5t89.5 230.5
q0 105 -62 175.5t-157 70.5q-81 0 -151 -50.5t-108.5 -128t-38.5 -159.5q0 -104 61 -173t156 -69z" />
    <glyph glyph-name="R" unicode="R" horiz-adv-x="608" 
d="M58 19l93 662q1 7 6.5 13t12.5 6h225q81 0 131 -56.5t50 -138.5q0 -74 -45.5 -137t-118.5 -86l87 -253q4 -10 -1 -19.5t-16 -9.5h-40q-20 0 -25 19l-79 255h-168l-36 -255q-1 -8 -6.5 -13.5t-12.5 -5.5h-43q-7 0 -11.5 5.5t-2.5 13.5zM181 340h163q64 0 108.5 48
t44.5 116q0 51 -32 87t-80 36h-163z" />
    <glyph glyph-name="S" unicode="S" horiz-adv-x="499" 
d="M32 76q-14 14 2 29l16 17q18 18 32 5q2 -2 15 -14.5t18.5 -16.5t20 -13.5t26 -13.5t30 -8t38.5 -4q52 0 89 33t37 88q0 44 -30.5 76t-99.5 72q-68 39 -101 78.5t-33 103.5q0 34 11.5 67.5t35 64.5t68 50.5t102.5 19.5q88 0 155 -51q16 -13 1 -34l-11 -16q-15 -21 -33 -9
q-62 43 -119 43q-61 0 -97.5 -39t-36.5 -87q0 -40 25.5 -70t75.5 -57q86 -46 127.5 -90t41.5 -114q0 -86 -58.5 -141t-160.5 -55q-101 0 -187 86z" />
    <glyph glyph-name="T" unicode="T" horiz-adv-x="476" 
d="M162 19l86 614h-153q-7 0 -11.5 5.5t-2.5 13.5l4 29q1 7 6.5 13t12.5 6h384q7 0 11.5 -5.5t2.5 -13.5l-4 -29q-1 -8 -7 -13.5t-13 -5.5h-153l-86 -614q-4 -19 -20 -19h-42q-7 0 -11.5 5.5t-3.5 13.5z" />
    <glyph glyph-name="U" unicode="U" horiz-adv-x="658" 
d="M84 246l60 435q4 19 20 19h43q7 0 11.5 -5.5t2.5 -13.5l-59 -429q-3 -21 -3 -40q0 -69 36 -110t102 -41q75 0 128 53.5t64 135.5l60 431q1 7 6.5 13t12.5 6h43q7 0 11 -6t3 -13l-60 -435q-16 -117 -87.5 -186.5t-189.5 -69.5q-92 0 -149.5 58.5t-57.5 154.5q0 20 3 43z
" />
    <glyph glyph-name="V" unicode="V" horiz-adv-x="613" 
d="M245 1l-179 673q-2 10 3.5 18t15.5 8h41q12 0 14 -11l138 -556h4l294 556q4 11 17 11h49q10 0 13 -8t-2 -18l-369 -673q-6 -11 -17 -11h-9q-9 0 -13 11z" />
    <glyph glyph-name="W" unicode="W" horiz-adv-x="818" 
d="M166 4l-75 672q-1 10 4.5 17t14.5 7h42q13 0 15 -14l47 -516h3l224 529q5 11 17 11h16q12 0 14 -11l77 -529h3l191 516q6 14 18 14h48q10 0 13.5 -7t-0.5 -17l-265 -672q-5 -14 -18 -14h-14q-12 0 -14 11l-81 539h-4l-230 -539q-5 -11 -17 -11h-14q-13 0 -15 14z" />
    <glyph glyph-name="X" unicode="X" horiz-adv-x="541" 
d="M14 0q-13 0 -16.5 7.5t3.5 17.5l232 334l-134 318q-4 10 1 16.5t16 6.5h48q10 0 14 -9l107 -271h1l180 271q6 9 17 9h55q11 0 15 -8t-3 -18l-221 -315l137 -334q5 -11 0 -18t-16 -7h-49q-11 0 -14 9l-110 288h-2l-194 -288q-5 -9 -17 -9h-50z" />
    <glyph glyph-name="Y" unicode="Y" horiz-adv-x="536" 
d="M190 19l45 318l-170 339q-5 9 -0.5 16.5t14.5 7.5h46q9 0 14 -9l139 -285h2l222 285q7 9 16 9h48q11 0 14 -9.5t-4 -19.5l-264 -333l-45 -319q-1 -7 -7 -13t-13 -6h-42q-7 0 -11.5 5.5t-3.5 13.5z" />
    <glyph glyph-name="Z" unicode="Z" horiz-adv-x="490" 
d="M105 72v-2h287q7 0 12 -5.5t3 -13.5l-5 -32q-4 -19 -20 -19h-374q-7 0 -11 5.5t-3 13.5l1 8q1 10 7 18l397 582v3h-276q-7 0 -11.5 6t-3.5 13l5 32q4 19 20 19h366q14 0 14 -14t-8 -26z" />
    <glyph glyph-name="bracketleft" unicode="[" horiz-adv-x="318" 
d="M83 -175h123q16 0 14 -18l-3 -26q-1 -7 -7 -13t-13 -6h-173q-7 0 -11.5 5.5t-3.5 13.5l127 900q1 7 6.5 13t12.5 6h174q7 0 11 -5.5t3 -13.5l-3 -25q-1 -8 -7 -13.5t-13 -5.5h-123z" />
    <glyph glyph-name="backslash" unicode="\" horiz-adv-x="362" 
d="M198 13l-82 662q-1 10 4.5 17.5t14.5 7.5h32q13 0 15 -13l83 -662q1 -10 -5 -17.5t-15 -7.5h-33q-12 0 -14 13z" />
    <glyph glyph-name="bracketright" unicode="]" horiz-adv-x="319" 
d="M-16 -175h122l114 812h-122q-7 0 -11.5 5.5t-3.5 13.5l4 25q4 19 19 19h174q7 0 11 -5.5t3 -13.5l-126 -900q-4 -19 -20 -19h-173q-7 0 -11.5 6t-3.5 13l4 26q4 18 20 18z" />
    <glyph glyph-name="asciicircum" unicode="^" horiz-adv-x="472" 
d="M65 398q-11 0 -13.5 9.5t5.5 18.5l221 278q8 10 17 10h5q10 0 14 -10l140 -283q5 -9 0 -16t-16 -7h-37q-11 0 -15 11l-100 208h-4l-159 -208q-9 -11 -18 -11h-40z" />
    <glyph glyph-name="underscore" unicode="_" horiz-adv-x="496" 
d="M65 -10h275q16 0 14 -19l-2 -16q-2 -18 -20 -18h-275q-16 0 -14 18l2 16q2 19 20 19z" />
    <glyph glyph-name="grave" unicode="`" horiz-adv-x="272" 
d="M231 562l-132 64q-17 8 -7 24l21 34q10 14 24 3l125 -84q11 -6 3 -19l-12 -20q-6 -10 -22 -2z" />
    <glyph glyph-name="a" unicode="a" horiz-adv-x="513" 
d="M451 443l-50 -426q-1 -17 -20 -17h-23q-13 0 -15 17l-4 29l-7 -6q-7 -6 -19.5 -14.5t-28 -16.5t-38 -14t-45.5 -6q-68 0 -113 59.5t-45 144.5q0 124 64.5 201.5t160.5 77.5q33 0 61.5 -12.5t40.5 -25.5l13 -12l15 29q4 11 15 11h23q10 0 13 -4t2 -15zM340 130l27 221
q-1 2 -3.5 6t-12 13.5t-20.5 16.5t-29.5 13t-38.5 6q-57 0 -101 -55t-44 -158q0 -54 27.5 -96t75.5 -42q33 0 62.5 18.5t42.5 37.5z" />
    <glyph glyph-name="b" unicode="b" horiz-adv-x="516" 
d="M59 0q-8 0 -13 6.5t-4 15.5l93 656q1 9 7 15.5t14 6.5h39q8 0 13 -6.5t4 -15.5l-34 -232q1 0 6.5 2.5t15.5 6.5t22.5 8t30.5 6.5t37 2.5q73 0 120.5 -59t47.5 -145q0 -118 -64.5 -198.5t-161.5 -80.5q-35 0 -65 15t-43 30l-12 15l-11 -30q-7 -19 -21 -19h-21zM133 132
q1 -3 3.5 -8.5t11.5 -18.5t19.5 -23t28.5 -18.5t38 -8.5q61 0 105 59.5t44 142.5q0 60 -32 104.5t-81 44.5q-26 0 -52 -8.5t-40 -17.5l-13 -8z" />
    <glyph glyph-name="c" unicode="c" horiz-adv-x="468" 
d="M42 196q0 120 70.5 198t172.5 78q101 0 145 -76q8 -17 -8 -30l-21 -18q-16 -15 -29 6q-32 52 -88 52q-65 0 -114.5 -55.5t-49.5 -144.5q0 -62 30.5 -106.5t82.5 -44.5q62 0 109 70q12 20 30 7l24 -17q13 -9 1 -30q-23 -41 -69 -68.5t-104 -27.5q-78 0 -130 59t-52 148z
" />
    <glyph glyph-name="d" unicode="d" horiz-adv-x="516" 
d="M199 -11q-68 0 -112.5 59.5t-44.5 144.5q0 117 67.5 198t168.5 81q18 0 35 -3t29 -7t21.5 -8.5t14.5 -7.5t6 -3l33 235q4 22 22 22h35q8 0 13.5 -6.5t4.5 -15.5l-92 -661q-3 -17 -21 -17h-23q-13 0 -15 17l-4 29l-7 -6q-7 -6 -19 -14.5t-28 -16.5t-38.5 -14t-45.5 -6z
M219 55q30 0 60.5 19.5t46.5 39.5l15 20l32 243q-37 29 -96 29q-65 0 -112 -61t-47 -144q0 -60 26.5 -103t74.5 -43z" />
    <glyph glyph-name="e" unicode="e" horiz-adv-x="462" 
d="M42 193q0 115 67.5 197t173.5 82q61 0 100.5 -33.5t39.5 -86.5q0 -68 -66 -109t-184 -41q-29 0 -64 3q-5 -60 26.5 -105t87.5 -45q45 0 101 41q17 12 29 -6l13 -20q10 -15 -7 -28q-67 -53 -143 -53q-78 0 -126 59t-48 145zM118 265q33 -3 63 -3q81 0 125 22.5t44 63.5
q0 24 -19.5 41.5t-52.5 17.5q-56 0 -102.5 -43t-57.5 -99z" />
    <glyph glyph-name="f" unicode="f" horiz-adv-x="360" 
d="M69 -238q-8 0 -13.5 7t-3.5 16l85 612h-74q-9 0 -14 6.5t-4 15.5l3 21q5 22 22 22h76l10 74q23 174 166 174q66 0 109 -45q11 -11 1 -26l-18 -24q-12 -17 -28 -1q-32 30 -70 30q-39 0 -59 -27t-27 -81l-10 -74h120q9 0 14 -6.5t4 -15.5l-4 -21q-1 -9 -7.5 -15.5
t-15.5 -6.5h-120l-85 -612q-2 -9 -9 -16t-14 -7h-34z" />
    <glyph glyph-name="g" unicode="g" horiz-adv-x="511" 
d="M40 174q0 134 70.5 216t161.5 82q36 0 64 -15t38 -29l10 -15l14 38q5 11 17 11h24q17 0 14 -22l-59 -415q-18 -128 -73 -186t-133 -58q-92 0 -156 83q-11 14 1 26l21 21q14 14 26 0l24 -27t34.5 -22.5t57.5 -13.5q46 0 80.5 40.5t45.5 131.5l4 32h-5q-53 -63 -130 -63
q-62 0 -106.5 51t-44.5 134zM205 55q46 0 87 43t51 81l22 154q-1 3 -3 8t-10 17.5t-18 22t-28 17.5t-38 8q-56 0 -106 -63t-50 -161q0 -56 28 -91.5t65 -35.5z" />
    <glyph glyph-name="h" unicode="h" horiz-adv-x="508" 
d="M59 0q-8 0 -13 6.5t-4 15.5l93 656q1 9 7 15.5t14 6.5h36q8 0 13 -6.5t4 -15.5l-38 -263l6 5q6 6 9.5 8.5t12.5 9t16 10.5t18 9t21.5 8t24.5 5t28 2q153 0 125 -197l-36 -253q-1 -9 -8 -15.5t-15 -6.5h-35q-8 0 -13 6.5t-4 15.5l37 254q19 130 -67 130q-21 0 -41.5 -7
t-35.5 -16.5t-27 -19.5t-19 -17l-6 -7l-46 -317q-1 -9 -8 -15.5t-16 -6.5h-33z" />
    <glyph glyph-name="i" unicode="i" horiz-adv-x="231" 
d="M59 0q-8 0 -13 6.5t-4 15.5l58 418q1 9 7.5 15.5t15.5 6.5h36q7 0 12 -7t3 -15l-58 -418q-1 -9 -8.5 -15.5t-15.5 -6.5h-33zM157 581q-21 0 -35 13.5t-14 33.5q0 26 19.5 44.5t44.5 18.5q20 0 33.5 -13.5t13.5 -33.5q0 -25 -18.5 -44t-43.5 -19z" />
    <glyph glyph-name="j" unicode="j" horiz-adv-x="232" 
d="M158 581q-21 0 -35 13.5t-14 33.5q0 26 19.5 44.5t44.5 18.5q20 0 33.5 -13.5t13.5 -33.5q0 -25 -18.5 -44t-43.5 -19zM175 440l-69 -490q-25 -170 -158 -198q-16 -3 -19 12l-7 32q-4 20 18 27q40 14 61.5 39t29.5 81l70 497q1 10 8.5 16t16.5 6h30q9 0 14.5 -6.5
t4.5 -15.5z" />
    <glyph glyph-name="k" unicode="k" horiz-adv-x="458" 
d="M59 0q-8 0 -13 6.5t-4 15.5l93 656q4 22 21 22h36q8 0 13 -6.5t4 -15.5l-53 -391l192 161q19 14 26 14h59q8 0 11 -5.5t1 -12t-7 -10.5l-217 -184l166 -221q6 -6 1.5 -17.5t-16.5 -11.5h-45q-12 0 -19 9l-159 223l-33 -210q-2 -9 -8 -15.5t-14 -6.5h-35z" />
    <glyph glyph-name="l" unicode="l" horiz-adv-x="240" 
d="M63 0q-8 0 -13 6.5t-4 15.5l93 656q1 9 8 15.5t15 6.5h34q8 0 13 -6.5t4 -15.5l-93 -656q-2 -9 -8 -15.5t-14 -6.5h-35z" />
    <glyph glyph-name="m" unicode="m" horiz-adv-x="763" 
d="M59 0q-8 0 -13 6.5t-4 15.5l58 418q2 22 23 22h20q12 0 15 -14l5 -35l7 6q6 6 17.5 14.5t26.5 17.5t37 15t46 6q74 0 109 -71l6 6q6 6 12.5 11.5t17 13.5t22.5 14.5t26.5 12.5t32.5 9.5t37 3.5q83 0 111.5 -50.5t15.5 -145.5l-35 -254q-1 -9 -8 -15.5t-15 -6.5h-34
q-9 0 -14 6.5t-4 15.5l35 254q18 130 -66 130q-14 0 -27 -3t-24.5 -8.5t-21 -11t-18.5 -13.5t-14 -12.5t-11.5 -11.5t-7.5 -8q2 -21 -3 -62l-34 -254q-1 -9 -8 -15.5t-15 -6.5h-35q-8 0 -13 6.5t-3 15.5l33 254q8 67 -8 98.5t-60 31.5q-20 0 -39 -7t-32.5 -17t-23.5 -20
t-16 -17l-6 -7l-43 -316q-1 -9 -8.5 -15.5t-15.5 -6.5h-33z" />
    <glyph glyph-name="n" unicode="n" horiz-adv-x="509" 
d="M59 0q-8 0 -13 6.5t-4 15.5l58 418q2 22 23 22h20q12 0 15 -14l5 -35l7 6q7 6 20 14.5t30 17.5t40 15t47 6q152 0 126 -196l-37 -254q-1 -9 -8 -15.5t-15 -6.5h-35q-8 0 -13 6.5t-4 15.5l37 254q19 130 -67 130q-21 0 -41.5 -7t-36 -16.5t-27 -19t-18.5 -16.5l-7 -7
l-45 -318q-1 -9 -8 -15.5t-17 -6.5h-32z" />
    <glyph glyph-name="o" unicode="o" horiz-adv-x="519" 
d="M41 198q0 112 70.5 193t171.5 81q73 0 126 -61t53 -146q0 -113 -71 -194.5t-172 -81.5q-73 0 -125.5 61.5t-52.5 147.5zM225 55q66 0 116 60.5t50 143.5q0 62 -32 104.5t-82 42.5q-66 0 -116 -59.5t-50 -142.5q0 -64 31.5 -106.5t82.5 -42.5z" />
    <glyph glyph-name="p" unicode="p" horiz-adv-x="517" 
d="M27 -238q-8 0 -13.5 7t-4.5 16l92 655q4 22 23 22h23q13 0 15 -15l4 -22l6 5q5 5 15.5 11.5t25 13.5t36.5 12t46 5q72 0 118 -60t46 -145q0 -117 -66.5 -197.5t-168.5 -80.5q-18 0 -35 3.5t-29 8.5t-21.5 10.5t-14.5 9t-6 3.5l-34 -239q-1 -9 -7.5 -16t-15.5 -7h-34z
M129 98q4 -5 12 -12t33 -19t50 -12q66 0 113 57t47 144q0 65 -27.5 107.5t-77.5 42.5q-29 0 -57 -14t-42 -28l-14 -14z" />
    <glyph glyph-name="q" unicode="q" horiz-adv-x="516" 
d="M42 194q0 115 65 196.5t166 81.5q21 0 40 -5t32.5 -12t23 -13.5t15.5 -11.5l5 -5l11 21q9 16 22 16h20q20 0 17 -22l-92 -655q-1 -9 -8 -16t-15 -7h-34q-9 0 -14.5 7t-3.5 16l34 239q-13 -12 -44 -23.5t-73 -11.5q-72 0 -119.5 59.5t-47.5 145.5zM118 199
q0 -63 28.5 -103.5t81.5 -40.5q24 0 50.5 10.5t41.5 20.5l14 10l38 260l-2 3q-3 3 -8 7t-11 9.5t-14.5 11t-18 9.5t-21 7t-23.5 3q-67 0 -111.5 -60.5t-44.5 -146.5z" />
    <glyph glyph-name="r" unicode="r" horiz-adv-x="362" 
d="M59 0q-8 0 -13 6.5t-4 15.5l58 418q2 22 23 22h20q12 0 15 -16l5 -33q51 59 129 59q38 0 60 -11q15 -7 7 -25l-14 -31q-6 -15 -26 -8q-23 9 -47 9q-33 0 -64.5 -21.5t-48.5 -43.5l-43 -319q-6 -22 -26 -22h-31z" />
    <glyph glyph-name="s" unicode="s" horiz-adv-x="383" 
d="M154 -11q-70 0 -129 49q-11 11 -2 25l17 26q10 17 28 3q45 -37 95 -37q32 0 54 19.5t22 47.5q0 23 -18.5 42.5t-59.5 45.5q-34 21 -49.5 32.5t-33 37.5t-17.5 57q0 51 38.5 93t113.5 42q70 0 113 -34q15 -13 4 -33l-10 -19q-10 -18 -31 -6q-41 26 -83 26q-35 0 -52.5 -18
t-17.5 -42q0 -15 10.5 -29.5t21.5 -22t34 -22.5q29 -19 44 -29.5t34 -28.5t27 -39t8 -46q0 -57 -42.5 -98.5t-118.5 -41.5z" />
    <glyph glyph-name="t" unicode="t" horiz-adv-x="355" 
d="M171 -11q-52 0 -77 35.5t-17 90.5l40 282h-52q-9 0 -14.5 6.5t-3.5 15.5l4 21q7 22 22 22h55l17 128q3 20 23 22l36 2q7 1 12.5 -6t3.5 -16l-18 -130h118q19 0 17 -22l-3 -21q-1 -9 -8 -15.5t-15 -6.5h-119l-41 -285q-4 -31 6 -42t30 -11q33 0 73 32q17 14 27 -9l11 -25
q7 -16 -12 -30q-49 -38 -115 -38z" />
    <glyph glyph-name="u" unicode="u" horiz-adv-x="496" 
d="M182 -11q-80 0 -108.5 48t-14.5 143l35 260q2 8 9 15t14 7h35q8 0 13.5 -7t4.5 -15l-36 -261q-10 -67 4.5 -95.5t61.5 -28.5q15 0 29.5 4t25.5 11t21.5 14.5t18 15.5t13 15t8.5 11l3 4l45 310q1 8 8 15t15 7h33q8 0 13.5 -7t4.5 -15l-59 -418q-2 -22 -23 -22h-20
q-13 0 -16 20l-4 29l-4 -4q-3 -4 -9 -9t-14 -11.5t-19.5 -12.5t-24.5 -11.5t-29.5 -8.5t-33.5 -3z" />
    <glyph glyph-name="v" unicode="v" horiz-adv-x="454" 
d="M168 1l-117 440q-7 21 17 21h35q16 0 19 -17l79 -324h2l174 328q7 13 24 13h32q13 0 16.5 -8t-3.5 -18l-237 -435q-7 -12 -19 -12h-6q-14 0 -16 12z" />
    <glyph glyph-name="w" unicode="w" horiz-adv-x="655" 
d="M122 1l-59 442q-3 19 18 19h35q17 0 19 -16l34 -295h3l162 311q6 12 20 12h6q13 0 15 -12l67 -311h3l118 295q7 16 23 16h29q26 0 17 -23l-178 -438q-7 -12 -19 -12h-6q-14 0 -16 12l-73 338h-3l-175 -338q-6 -12 -19 -12h-5q-14 0 -16 12z" />
    <glyph glyph-name="x" unicode="x" horiz-adv-x="445" 
d="M17 0q-13 0 -16 9.5t6 20.5l163 203l-105 197q-6 12 1 22t20 10h32q11 0 16 -9l81 -170h3l135 170q8 9 18 9h40q13 0 17 -10t-5 -22l-168 -197l111 -204q6 -11 0.5 -20t-17.5 -9h-35q-11 0 -15 10l-89 174h-3l-135 -175q-5 -9 -17 -9h-38z" />
    <glyph glyph-name="y" unicode="y" horiz-adv-x="485" 
d="M164 0l-112 437q-3 11 2.5 18t16.5 7h37q13 0 16 -13l85 -369h3l188 369q6 13 20 13h41q11 0 15.5 -7.5t-1.5 -18.5l-352 -660q-7 -14 -20 -14h-43q-12 0 -15 7t3 19z" />
    <glyph glyph-name="z" unicode="z" horiz-adv-x="391" 
d="M273 0h-249q-19 0 -19 19q0 13 7 23l253 352v3h-181q-8 0 -12.5 6.5t-2.5 15.5l4 21q1 10 7.5 16t14.5 6h264q18 0 18 -18q0 -7 -4 -14l-261 -364v-1h171q9 0 14 -6t3 -16l-4 -21q-4 -22 -23 -22z" />
    <glyph glyph-name="braceleft" unicode="{" horiz-adv-x="376" 
d="M68 -26l20 146q4 30 -14 52t-37 26q-5 1 -9 6t-3 11l5 31q2 13 16 15q21 4 45 26t28 52l20 146q9 65 36.5 111.5t65.5 70t75 33.5t76 10q17 0 16 -17l-3 -19q-2 -16 -15 -18q-168 -20 -189 -171l-16 -118q-6 -46 -24.5 -76.5t-32 -39.5t-33.5 -18l-1 -7q8 -4 13 -7
t14 -11t13 -16t10 -23.5t4.5 -33t-2.5 -43.5l-16 -118q-11 -79 24 -119.5t117 -50.5q12 -2 9 -17l-3 -20q-2 -17 -20 -17q-37 0 -72 12.5t-65 37.5t-45 70.5t-7 103.5z" />
    <glyph glyph-name="bar" unicode="|" horiz-adv-x="200" 
d="M9 -220l135 961q1 8 7 13.5t13 5.5h7q16 0 13 -19l-134 -961q-4 -18 -20 -18h-6q-7 0 -11.5 5.5t-3.5 12.5z" />
    <glyph glyph-name="braceright" unicode="}" horiz-adv-x="375" 
d="M175 92q6 46 24.5 76.5t32 39.5t33.5 18l1 7q-8 4 -13 7t-14 11t-13 16t-10 23.5t-4.5 33t2.5 43.5l16 118q11 78 -27.5 119.5t-113.5 51.5q-11 2 -9 18l3 19q3 17 20 17q37 0 72 -13.5t64.5 -39.5t44.5 -71t8 -101l-19 -146q-4 -31 13 -52.5t37 -25.5q14 -2 12 -15
l-5 -31q-2 -15 -16 -17q-21 -4 -45 -25.5t-28 -52.5l-20 -146q-9 -65 -36.5 -111.5t-65.5 -69.5t-74.5 -33t-75.5 -10q-7 0 -12 5t-4 12l3 20q3 15 15 17q167 12 188 170z" />
    <glyph glyph-name="asciitilde" unicode="~" horiz-adv-x="519" 
d="M73 228q-4 3 -11 8.5t-10 8.5q-7 9 2 24q61 92 132 92q42 0 93 -46q40 -33 61 -33q10 0 19.5 4t16.5 9t15.5 13.5t13 14t11 14.5t8.5 11q14 17 25 4l20 -17q8 -10 -2 -24l-7 -10q-8 -10 -15 -18.5t-20 -21t-25.5 -21t-30 -15t-35.5 -6.5q-40 0 -91 44q-3 2 -10 8.5
t-11.5 10t-11.5 8t-14 6.5t-15 2q-7 0 -14.5 -2.5t-13 -5t-12.5 -8.5t-11 -10t-10 -11t-8.5 -10.5l-7.5 -10.5t-6 -8q-14 -17 -25 -4z" />
    <glyph glyph-name="uni00A0" unicode="&#xa0;" horiz-adv-x="240" 
 />
    <glyph glyph-name="exclamdown" unicode="&#xa1;" horiz-adv-x="238" 
d="M131 359q-21 0 -34.5 14.5t-13.5 35.5q0 26 19 45t45 19q20 0 33.5 -14.5t13.5 -35.5q0 -26 -19 -45t-44 -19zM81 175q4 16 19 16h14q6 0 10.5 -5t4.5 -11l-20 -279l-16 -114q-1 -7 -6.5 -13t-12.5 -6h-54q-7 0 -11.5 5.5t-3.5 13.5l16 112z" />
    <glyph glyph-name="cent" unicode="&#xa2;" horiz-adv-x="506" 
d="M163 10q-46 27 -74.5 76t-28.5 110q0 115 75 195.5t177 80.5q1 0 28 -3l18 50q10 22 27 14l8 -2q19 -4 9 -26l-19 -47q43 -22 68 -67q12 -18 -8 -31l-20 -14q-18 -12 -29 5q-14 23 -37 37l-123 -321q12 -2 20 -2q59 0 108 65q13 21 30 8l25 -23q12 -10 2 -30
q-26 -40 -72.5 -68.5t-102.5 -28.5q-10 0 -38 5l-43 -112q-2 -8 -10.5 -12.5t-16.5 -2.5l-7 3q-6 2 -9 9t0 16zM193 86l120 316h-6q-63 0 -112.5 -58.5t-49.5 -137.5q0 -80 48 -120z" />
    <glyph glyph-name="sterling" unicode="&#xa3;" 
d="M110 19l3 18q75 121 71 257h-40q-15 0 -13 19l1 7q2 19 19 19h28q0 5 -2.5 25.5t-4.5 45t-2 45.5q0 121 59 188t159 67q76 0 144 -71q12 -12 -2 -26l-24 -24q-15 -15 -26 -1q-5 7 -15 17t-35.5 24.5t-50.5 14.5q-57 0 -97.5 -50t-40.5 -135q0 -23 2.5 -49.5t5.5 -47
t3 -23.5h141q16 0 14 -19l-1 -8q-2 -18 -19 -18h-131q1 -45 -13 -114t-38 -116h217q15 0 13 -19l-3 -26q-1 -7 -6.5 -13t-12.5 -6h-288q-7 0 -11.5 5.5t-3.5 13.5z" />
    <glyph glyph-name="currency" unicode="&#xa4;" horiz-adv-x="456" 
d="M90 176l-19 19q-11 11 4 27l44 41q-8 24 -8 47q0 49 27 91l-32 41q-4 5 -3 14t7 13l24 19q16 12 24 0l32 -41q31 20 64 20q32 0 57 -19l44 42q11 11 23 -1l18 -20q11 -12 -3 -26l-44 -41q8 -20 8 -48q0 -50 -27 -92l32 -41q4 -5 3 -13.5t-7 -12.5l-24 -20q-14 -14 -23 -1
l-33 42q-32 -19 -63 -19q-32 0 -58 20l-43 -41q-12 -12 -24 0zM222 260q30 0 52.5 25.5t22.5 57.5q0 27 -15 44t-39 17q-30 0 -52 -25.5t-22 -59.5q0 -26 14.5 -42.5t38.5 -16.5z" />
    <glyph glyph-name="yen" unicode="&#xa5;" 
d="M122 123q-7 0 -11 5.5t-3 13.5l1 7q4 19 19 19h115l10 75h-114q-7 0 -11 5.5t-3 13.5l1 7q4 19 19 19h115l7 49l-170 339q-5 9 -0.5 16.5t14.5 7.5h46q9 0 14 -9l139 -285h2l222 285q7 9 16 9h48q11 0 14 -9.5t-4 -19.5l-264 -333l-7 -50h113q7 0 11.5 -5.5t3.5 -13.5
l-2 -8q-2 -18 -19 -18h-114l-10 -75h113q7 0 11.5 -5.5t3.5 -13.5l-1 -8q-4 -18 -20 -18h-114l-14 -104q-1 -7 -7 -13t-13 -6h-42q-7 0 -11.5 5.5t-3.5 13.5l14 104h-114z" />
    <glyph glyph-name="brokenbar" unicode="&#xa6;" horiz-adv-x="208" 
d="M116 393q-7 0 -11.5 5.5t-3.5 12.5l47 330q1 8 7 13.5t13 5.5h7q16 0 13 -19l-46 -330q-1 -7 -7 -12.5t-13 -5.5h-6zM60 111q1 8 6.5 13.5t12.5 5.5h8q16 0 13 -19l-46 -331q-4 -18 -20 -18h-6q-7 0 -11.5 5.5t-3.5 12.5z" />
    <glyph glyph-name="section" unicode="&#xa7;" horiz-adv-x="531" 
d="M36 -113q17 17 28 3q8 -9 22 -22.5t49.5 -32t69.5 -18.5q48 0 88 30t40 83q0 41 -31 75.5t-97 70.5q-133 73 -133 173q0 43 22.5 80t42.5 53t25 16q-3 0 -14.5 13t-24.5 43.5t-13 65.5q0 32 11 63t34 60.5t65.5 48t97.5 18.5q91 0 159 -51q15 -11 1 -33l-17 -21
q-14 -18 -31 -6q-66 44 -114 44q-63 0 -97 -35.5t-34 -76.5q0 -68 100 -119q86 -44 128.5 -84.5t42.5 -98.5q0 -27 -9.5 -53t-23 -44t-28 -32t-24 -21t-11.5 -7q3 0 15.5 -14.5t26 -48t13.5 -71.5q0 -84 -61.5 -136t-155.5 -52q-108 0 -182 81q-15 18 0 34zM146 259
q0 -21 6.5 -37t24 -31t31.5 -25t46 -29t51 -31q3 1 7.5 4t16.5 13t21.5 21.5t17 30.5t7.5 40q0 37 -31.5 65.5t-101.5 64.5q-19 11 -32 19q-3 0 -17 -9.5t-30.5 -35.5t-16.5 -60z" />
    <glyph glyph-name="dieresis" unicode="&#xa8;" horiz-adv-x="373" 
d="M309 581q-20 0 -31.5 12.5t-11.5 32.5q0 24 17 41t39 17q20 0 32 -13t12 -33q0 -23 -17 -40t-40 -17zM134 581q-19 0 -31 12.5t-12 32.5q0 24 17 41t40 17q19 0 31 -13t12 -33q0 -23 -17 -40t-40 -17z" />
    <glyph glyph-name="copyright" unicode="&#xa9;" horiz-adv-x="782" 
d="M73 303q0 166 111.5 286.5t264.5 120.5q116 0 197.5 -92t81.5 -221q0 -167 -111.5 -287t-264.5 -120q-115 0 -197 92t-82 221zM130 310q0 -108 65 -184t163 -76q124 0 218 101t94 239q0 109 -64.5 184t-163.5 75q-123 0 -217.5 -100.5t-94.5 -238.5zM238 332
q0 83 57.5 143.5t138.5 60.5q61 0 99 -38q12 -14 -3 -29l-18 -18q-11 -11 -24 -1q-27 23 -61 23q-49 0 -85.5 -42t-36.5 -99q0 -44 24.5 -73.5t63.5 -29.5q33 0 64 22q17 11 26 -1l15 -19q11 -12 -5 -28q-46 -42 -110 -42q-59 0 -102 49.5t-43 121.5z" />
    <glyph glyph-name="ordfeminine" unicode="&#xaa;" horiz-adv-x="317" 
d="M146 404q-32 0 -52.5 27.5t-14.5 69.5q5 42 37 69t81 27q12 0 24 -2.5t18 -4.5l6 -3q7 41 3.5 59t-28.5 18q-30 0 -80 -18q-10 -3 -12 11l-2 18q-1 9 8 15q33 20 96 20q25 0 40 -8.5t21.5 -18t7 -32t-1 -33.5t-5.5 -40l-21 -152q-2 -14 -14 -14h-21q-7 0 -9 10l-3 16
q-13 -11 -19.5 -16t-23 -11.5t-35.5 -6.5zM158 451q38 0 71 38l8 56q-21 13 -48 13q-22 0 -41.5 -16.5t-22.5 -41.5q-3 -21 5.5 -35t27.5 -14z" />
    <glyph glyph-name="guillemotleft" unicode="&#xab;" horiz-adv-x="412" 
d="M269 69l-72 155q-6 11 3 24l114 148q10 12 20 12h22q11 0 13.5 -9.5t-4.5 -21.5l-86 -144l39 -142q3 -13 -1.5 -21.5t-16.5 -8.5h-18q-9 0 -13 8zM117 69l-72 155q-6 11 3 24l114 148q10 12 20 12h22q11 0 13.5 -9.5t-4.5 -21.5l-86 -144l39 -142q3 -13 -1.5 -21.5
t-16.5 -8.5h-18q-9 0 -13 8z" />
    <glyph glyph-name="logicalnot" unicode="&#xac;" horiz-adv-x="541" 
d="M94 314q-7 0 -11 5.5t-3 13.5l4 28q1 7 7 13t13 6h343q7 0 11.5 -6t3.5 -13l-29 -204q-1 -7 -7 -12.5t-13 -5.5h-33q-7 0 -11 5.5t-3 12.5l22 157h-294z" />
    <glyph glyph-name="uni00AD" unicode="&#xad;" horiz-adv-x="363" 
d="M77 220q-8 0 -12 5.5t-3 12.5l3 19q3 19 20 19h191q17 0 14 -19l-3 -19q-4 -18 -20 -18h-190z" />
    <glyph glyph-name="registered" unicode="&#xae;" horiz-adv-x="782" 
d="M73 303q0 166 111.5 286.5t264.5 120.5q116 0 197.5 -92t81.5 -221q0 -167 -111.5 -287t-264.5 -120q-115 0 -197 92t-82 221zM130 310q0 -108 65 -184t163 -76q124 0 218 101t94 239q0 109 -64.5 184t-163.5 75q-123 0 -217.5 -100.5t-94.5 -238.5zM265 187l46 328
q1 8 7 13.5t13 5.5h129q41 0 68.5 -26.5t27.5 -76.5q0 -53 -28 -81t-61 -35q6 -19 18.5 -60t18.5 -60q3 -10 -1.5 -18.5t-17.5 -8.5h-27q-13 0 -18 14l-32 125h-66l-17 -120q-1 -8 -6.5 -13.5t-12.5 -5.5h-27q-7 0 -11.5 5.5t-2.5 13.5zM349 365h86q26 0 43 19.5t17 46.5
q0 21 -11.5 34.5t-32.5 13.5h-86z" />
    <glyph glyph-name="macron" unicode="&#xaf;" horiz-adv-x="373" 
d="M54 583q-17 0 -15 18l3 21q3 19 20 19h231q7 0 11 -5.5t3 -13.5l-3 -21q-2 -18 -20 -18h-230z" />
    <glyph glyph-name="degree" unicode="&#xb0;" horiz-adv-x="340" 
d="M191 440q-42 0 -73 34.5t-31 82.5q0 64 41 108.5t101 44.5q43 0 73.5 -34t30.5 -83q0 -63 -42.5 -108t-99.5 -45zM199 497q30 0 53 26t23 62q0 27 -15.5 46.5t-38.5 19.5q-31 0 -54.5 -26t-23.5 -62q0 -28 16 -47t40 -19z" />
    <glyph glyph-name="plusminus" unicode="&#xb1;" 
d="M279 249q-7 0 -11.5 5.5t-3.5 12.5l16 117h-140q-7 0 -11 6t-3 13l4 28q1 7 6.5 13t12.5 6h140l21 148q4 18 20 18h30q7 0 11.5 -5.5t3.5 -12.5l-21 -148h140q7 0 11 -5.5t3 -13.5l-4 -28q-4 -19 -19 -19h-140l-17 -117q-1 -7 -6.5 -12.5t-12.5 -5.5h-30zM103 61
q-7 0 -11 6t-3 13l4 28q1 8 6.5 13.5t12.5 5.5h345q7 0 11 -5.5t3 -13.5l-4 -28q-4 -19 -19 -19h-345z" />
    <glyph glyph-name="twosuperior" unicode="&#xb2;" horiz-adv-x="267" 
d="M74 504q-9 0 -8 9l2 16l129 131q38 38 38 62q0 16 -11 28.5t-32 12.5q-25 0 -57 -30q-7 -5 -12 0l-14 18q-5 8 1 14q45 45 92 45q39 0 63 -22t24 -55q0 -45 -57 -102l-80 -83h103q8 0 6 -10l-3 -25q-2 -9 -9 -9h-175z" />
    <glyph glyph-name="threesuperior" unicode="&#xb3;" horiz-adv-x="268" 
d="M154 494q-59 0 -86 41q-6 6 3 11l18 20q8 5 12 -1q26 -26 56 -26q24 0 41.5 14.5t17.5 36.5q0 18 -14 30t-42 12h-28q-10 0 -8 9l3 25q1 9 11 9h28q29 0 45.5 14.5t16.5 35.5q0 17 -12 28t-29 11q-24 0 -51 -27q-7 -5 -12 0l-16 21q-2 2 -2 6t4 6q39 40 89 40
q37 0 60.5 -20t23.5 -53q0 -27 -18.5 -49t-39.5 -31v-2q16 -7 30.5 -25.5t14.5 -41.5q0 -39 -33.5 -66.5t-82.5 -27.5z" />
    <glyph glyph-name="acute" unicode="&#xb4;" horiz-adv-x="272" 
d="M113 557q-17 -8 -22 8l-7 18q-4 12 8 19l148 84q4 4 13 2.5t12 -10.5l13 -33q6 -15 -8 -21z" />
    <glyph glyph-name="mu" unicode="&#xb5;" horiz-adv-x="503" 
d="M199 -11q-45 0 -74 17l-31 -222q-2 -9 -8 -15.5t-14 -6.5h-35q-8 0 -13 6.5t-4 15.5l91 656q2 8 9 15t14 7h35q8 0 13.5 -7t4.5 -15l-35 -250q-9 -69 5 -102t60 -33q15 0 29.5 4t25.5 11t21.5 14.5t18 15.5t13 15t8.5 11l3 4l45 310q1 8 8 15t15 7h33q8 0 13.5 -7
t4.5 -15l-59 -418q-2 -22 -23 -22h-20q-13 0 -16 20l-4 29l-3 -4q-4 -4 -10 -9t-14 -11.5t-19.5 -12.5t-24.5 -11.5t-29.5 -8.5t-33.5 -3z" />
    <glyph glyph-name="paragraph" unicode="&#xb6;" horiz-adv-x="675" 
d="M197 -219l70 501h-39q-69 0 -114.5 52.5t-45.5 129.5q0 95 62.5 165.5t143.5 70.5h400q7 0 11 -5.5t3 -13.5l-3 -20q-1 -8 -7 -13.5t-13 -5.5h-94l-121 -861q-1 -8 -7 -13.5t-13 -5.5h-24q-7 0 -11 6t-3 13l120 861h-137l-121 -861q-1 -7 -7 -13t-13 -6h-23q-7 0 -11 5.5
t-3 13.5z" />
    <glyph glyph-name="periodcentered" unicode="&#xb7;" horiz-adv-x="235" 
d="M106 204q-21 0 -35 14.5t-14 35.5q0 26 20 45t45 19q21 0 35 -14.5t14 -35.5q0 -26 -19.5 -45t-45.5 -19z" />
    <glyph glyph-name="cedilla" unicode="&#xb8;" horiz-adv-x="247" 
d="M126 3h57l-53 -70q12 4 25 4q30 0 50.5 -19t20.5 -54q0 -46 -35 -75t-85 -29q-52 0 -81 31q-7 9 3 21l9 12q11 16 22 5q22 -20 47 -20q27 0 45.5 14t18.5 39q0 37 -48 37q-25 0 -45 -10q-6 -2 -10.5 4t-1.5 11z" />
    <glyph glyph-name="onesuperior" unicode="&#xb9;" horiz-adv-x="182" 
d="M120 504q-10 0 -8 9l29 210l-39 -11q-8 -2 -8 4l-2 20q0 7 5 11l71 53h29q9 0 7 -9l-40 -278q-2 -9 -9 -9h-35z" />
    <glyph glyph-name="ordmasculine" unicode="&#xba;" horiz-adv-x="333" 
d="M182 394q-43 0 -68.5 33t-25.5 89q0 89 35.5 141t100.5 52q43 0 68.5 -33t25.5 -89q0 -89 -35.5 -141t-100.5 -52zM188 442q35 0 55.5 38.5t20.5 102.5q0 78 -46 78q-35 0 -55.5 -39t-20.5 -103q0 -77 46 -77z" />
    <glyph glyph-name="guillemotright" unicode="&#xbb;" horiz-adv-x="413" 
d="M186 92l86 144l-39 142q-3 13 1.5 21.5t16.5 8.5h18q9 0 13 -8l72 -155q6 -11 -3 -24l-114 -148q-10 -12 -20 -12h-22q-11 0 -13.5 9.5t4.5 21.5zM42 61q-11 0 -13.5 9.5t4.5 21.5l86 144l-39 142q-3 13 1.5 21.5t16.5 8.5h18q9 0 13 -8l72 -155q6 -11 -3 -24l-114 -148
q-10 -12 -20 -12h-22z" />
    <glyph glyph-name="onequarter" unicode="&#xbc;" horiz-adv-x="597" 
d="M56 27l402 663q6 10 16 10h24q10 0 13.5 -8.5t-2.5 -18.5l-404 -663q-5 -10 -16 -10h-22q-10 0 -13.5 8.5t2.5 18.5zM125 404q-10 0 -8 9l29 210l-39 -11q-8 -2 -8 4l-2 20q0 7 5 11l71 53h29q9 0 7 -9l-40 -278q-2 -9 -9 -9h-35zM287 68l4 29l181 196q3 3 7 3h22
q3 0 6 -2.5t2 -6.5l-26 -185h36q7 0 7 -8l-3 -26q-2 -8 -10 -8h-36l-7 -51q-2 -9 -11 -9h-32q-3 0 -6 2.5t-2 6.5l7 50h-133q-8 0 -6 9zM353 103h81l16 111z" />
    <glyph glyph-name="onehalf" unicode="&#xbd;" horiz-adv-x="582" 
d="M56 27l402 663q6 10 16 10h24q10 0 13.5 -8.5t-2.5 -18.5l-404 -663q-5 -10 -16 -10h-22q-10 0 -13.5 8.5t2.5 18.5zM125 404q-10 0 -8 9l29 210l-39 -11q-8 -2 -8 4l-2 20q0 7 5 11l71 53h29q9 0 7 -9l-40 -278q-2 -9 -9 -9h-35zM297 9l2 16l129 131q38 41 38 62
q0 16 -11 28.5t-32 12.5q-25 0 -57 -30q-7 -5 -12 0l-14 18q-5 8 1 14q45 45 92 45q39 0 63 -22t24 -55q0 -45 -57 -102l-80 -83h103q8 0 6 -10l-3 -25q-2 -9 -9 -9h-175q-9 0 -8 9z" />
    <glyph glyph-name="threequarters" unicode="&#xbe;" horiz-adv-x="664" 
d="M156 394q-59 0 -86 41q-6 6 3 11l18 20q8 5 12 -1q26 -26 56 -26q24 0 41.5 14.5t17.5 36.5q0 18 -14 30t-42 12h-28q-10 0 -8 9l3 25q1 9 11 9h28q29 0 45.5 14.5t16.5 35.5q0 17 -12 28t-29 11q-24 0 -51 -27q-7 -5 -12 0l-16 21q-2 2 -2 6t4 6q39 40 89 40
q37 0 60.5 -20t23.5 -53q0 -27 -18.5 -49t-39.5 -31v-2q16 -7 30.5 -25.5t14.5 -41.5q0 -39 -33.5 -66.5t-82.5 -27.5zM122 27l402 663q6 10 16 10h24q10 0 13.5 -8.5t-2.5 -18.5l-404 -663q-5 -10 -16 -10h-22q-10 0 -13.5 8.5t2.5 18.5zM353 68l4 29l181 196q3 3 7 3h22
q3 0 6 -2.5t2 -6.5l-26 -185h36q7 0 7 -8l-3 -26q-2 -8 -10 -8h-36l-7 -51q-2 -9 -11 -9h-32q-3 0 -6 2.5t-2 6.5l7 50h-133q-8 0 -6 9zM419 103h81l16 111z" />
    <glyph glyph-name="questiondown" unicode="&#xbf;" horiz-adv-x="405" 
d="M216 359q-21 0 -34 14.5t-13 35.5q0 26 19 45t44 19q21 0 34.5 -14.5t13.5 -35.5q0 -26 -19.5 -45t-44.5 -19zM89 48q23 17 33 25.5t22 24t14 32.5l6 41q3 20 21 20h33q16 0 14 -19l-6 -42q-2 -17 -8 -32t-11 -24.5t-17.5 -22t-17 -16.5t-21 -17t-18.5 -15t-21 -16.5
t-24 -19.5t-16 -18.5t-14.5 -27t-3.5 -31.5q0 -31 22 -53t59 -22q17 0 32.5 4t26.5 9t23 14.5t17.5 15t15 15.5t11.5 12q11 11 23 1l18 -15q12 -11 0 -30q-6 -9 -15 -19t-30.5 -28t-56.5 -29.5t-77 -11.5q-61 0 -100.5 36.5t-39.5 95.5q0 39 18.5 72.5t36 49t51.5 41.5z" />
    <glyph glyph-name="Agrave" unicode="&#xc0;" horiz-adv-x="615" 
d="M-9 0q-10 0 -13.5 8t1.5 18l369 673q6 11 17 11h9q10 0 14 -11l178 -673q2 -10 -3.5 -18t-15.5 -8h-42q-13 0 -15 11l-40 165h-312l-85 -165q-7 -11 -19 -11h-43zM175 238h256l-79 328h-6zM441 783l-132 64q-17 8 -7 24l21 34q10 14 24 3l125 -84q11 -6 3 -19l-12 -20
q-6 -10 -22 -2z" />
    <glyph glyph-name="Aacute" unicode="&#xc1;" horiz-adv-x="615" 
d="M-9 0q-10 0 -13.5 8t1.5 18l369 673q6 11 17 11h9q10 0 14 -11l178 -673q2 -10 -3.5 -18t-15.5 -8h-42q-13 0 -15 11l-40 165h-312l-85 -165q-7 -11 -19 -11h-43zM175 238h256l-79 328h-6zM319 779q-17 -8 -22 8l-7 18q-4 12 8 19l148 84q4 4 13 2.5t12 -10.5l13 -33
q6 -15 -8 -21z" />
    <glyph glyph-name="Acircumflex" unicode="&#xc2;" horiz-adv-x="615" 
d="M-9 0q-10 0 -13.5 8t1.5 18l369 673q6 11 17 11h9q10 0 14 -11l178 -673q2 -10 -3.5 -18t-15.5 -8h-42q-13 0 -15 11l-40 165h-312l-85 -165q-7 -11 -19 -11h-43zM175 238h256l-79 328h-6zM285 771q-15 -11 -22 3l-9 18q-8 16 5 24l119 94q9 7 18 7h3q9 0 19 -12l84 -91
q8 -9 -2 -19l-14 -15q-12 -12 -21 -4l-78 66z" />
    <glyph glyph-name="Atilde" unicode="&#xc3;" horiz-adv-x="615" 
d="M-9 0q-10 0 -13.5 8t1.5 18l369 673q6 11 17 11h9q10 0 14 -11l178 -673q2 -10 -3.5 -18t-15.5 -8h-42q-13 0 -15 11l-40 165h-312l-85 -165q-7 -11 -19 -11h-43zM175 238h256l-79 328h-6zM272 795l-16 8q-11 7 -4 23q6 15 15 31t32 34.5t50 18.5q18 0 32 -11t21.5 -25
t17 -25t18.5 -11q25 0 42 47q8 21 25 11l14 -8q13 -8 7 -23q-9 -29 -34 -57t-62 -28q-15 0 -29 11.5t-23 25t-18.5 25t-17.5 11.5q-12 0 -22.5 -10.5t-14 -17.5t-9.5 -22q-3 -7 -10 -9.5t-14 1.5z" />
    <glyph glyph-name="Adieresis" unicode="&#xc4;" horiz-adv-x="615" 
d="M-9 0q-10 0 -13.5 8t1.5 18l369 673q6 11 17 11h9q10 0 14 -11l178 -673q2 -10 -3.5 -18t-15.5 -8h-42q-13 0 -15 11l-40 165h-312l-85 -165q-7 -11 -19 -11h-43zM175 238h256l-79 328h-6zM477 788q-20 0 -31.5 12.5t-11.5 32.5q0 24 17 41t39 17q19 0 31.5 -13t12.5 -33
q0 -23 -17.5 -40t-39.5 -17zM282 788q-20 0 -31.5 12.5t-11.5 32.5q0 24 17 41t39 17q19 0 31.5 -13t12.5 -33q0 -23 -17.5 -40t-39.5 -17z" />
    <glyph glyph-name="Aring" unicode="&#xc5;" horiz-adv-x="615" 
d="M-9 0q-10 0 -13.5 8t1.5 18l369 673q6 11 17 11h9q10 0 14 -11l178 -673q2 -10 -3.5 -18t-15.5 -8h-42q-13 0 -15 11l-40 165h-312l-85 -165q-7 -11 -19 -11h-43zM175 238h256l-79 328h-6zM376 758q-37 0 -61 27t-24 67q0 52 34 88t81 36q36 0 60.5 -27.5t24.5 -66.5
q0 -51 -34 -87.5t-81 -36.5zM382 806q23 0 41 21t18 48q0 22 -11 36.5t-31 14.5q-23 0 -41.5 -20t-18.5 -46q0 -22 11.5 -38t31.5 -16z" />
    <glyph glyph-name="AE" unicode="&#xc6;" horiz-adv-x="814" 
d="M23 0h-48q-10 0 -12.5 8t4.5 18l452 643q12 18 20.5 24.5t23.5 6.5h345q7 0 11 -5.5t3 -13.5l-4 -29q-1 -8 -7 -13.5t-13 -5.5h-301l-35 -244h258q7 0 11 -5.5t3 -13.5l-4 -29q-1 -8 -7 -13.5t-13 -5.5h-257l-36 -255h302q7 0 11 -5.5t3 -13.5l-4 -29q-1 -8 -7 -13.5
t-13 -5.5h-356q-7 0 -11.5 5.5t-3.5 13.5l22 157h-205l-113 -165q-9 -11 -19 -11zM200 238h169l46 319z" />
    <glyph glyph-name="Ccedilla" unicode="&#xc7;" horiz-adv-x="648" 
d="M61 301q0 170 109 289.5t270 119.5q118 0 205 -93q5 -5 4.5 -14t-7.5 -14l-29 -23q-12 -10 -26 5q-25 29 -69 48t-88 19q-114 0 -200.5 -98.5t-86.5 -229.5q0 -102 58 -174.5t148 -72.5q35 0 68.5 13t52.5 25.5t53 39.5q14 11 22 3l31 -30q12 -12 -4 -27
q-92 -88 -211 -96l-44 -58q12 4 25 4q31 0 52.5 -19t21.5 -54q0 -46 -36.5 -75t-86.5 -29q-52 0 -81 31q-7 9 3 21l9 12q11 16 22 5q22 -20 47 -20q28 0 46 12t18 37q0 33 -48 33q-29 0 -49 -10q-6 -2 -10.5 4t-1.5 11l58 97q-102 13 -173.5 101t-71.5 207z" />
    <glyph glyph-name="Egrave" unicode="&#xc8;" horiz-adv-x="534" 
d="M58 19l93 662q1 7 6.5 13t12.5 6h357q7 0 11.5 -5.5t2.5 -13.5l-4 -29q-1 -8 -7 -13.5t-13 -5.5h-296l-35 -244h253q7 0 11 -6t3 -13l-4 -29q-1 -8 -6.5 -13.5t-12.5 -5.5h-253l-36 -255h297q7 0 11.5 -5.5t2.5 -13.5l-4 -29q-1 -8 -7 -13.5t-13 -5.5h-356
q-7 0 -11.5 5.5t-2.5 13.5zM421 783l-132 64q-17 8 -7 24l21 34q10 14 24 3l125 -84q11 -6 3 -19l-12 -20q-6 -10 -22 -2z" />
    <glyph glyph-name="Eacute" unicode="&#xc9;" horiz-adv-x="534" 
d="M58 19l93 662q1 7 6.5 13t12.5 6h357q7 0 11.5 -5.5t2.5 -13.5l-4 -29q-1 -8 -7 -13.5t-13 -5.5h-296l-35 -244h253q7 0 11 -6t3 -13l-4 -29q-1 -8 -6.5 -13.5t-12.5 -5.5h-253l-36 -255h297q7 0 11.5 -5.5t2.5 -13.5l-4 -29q-1 -8 -7 -13.5t-13 -5.5h-356
q-7 0 -11.5 5.5t-2.5 13.5zM300 779q-17 -8 -22 8l-7 18q-4 12 8 19l148 84q4 4 13 2.5t12 -10.5l13 -33q6 -15 -8 -21z" />
    <glyph glyph-name="Ecircumflex" unicode="&#xca;" horiz-adv-x="534" 
d="M58 19l93 662q1 7 6.5 13t12.5 6h357q7 0 11.5 -5.5t2.5 -13.5l-4 -29q-1 -8 -7 -13.5t-13 -5.5h-296l-35 -244h253q7 0 11 -6t3 -13l-4 -29q-1 -8 -6.5 -13.5t-12.5 -5.5h-253l-36 -255h297q7 0 11.5 -5.5t2.5 -13.5l-4 -29q-1 -8 -7 -13.5t-13 -5.5h-356
q-7 0 -11.5 5.5t-2.5 13.5zM265 771q-15 -11 -22 3l-9 18q-8 16 5 24l119 94q9 7 18 7h3q9 0 19 -12l84 -91q8 -9 -2 -19l-14 -15q-12 -12 -21 -4l-78 66z" />
    <glyph glyph-name="Edieresis" unicode="&#xcb;" horiz-adv-x="534" 
d="M58 19l93 662q1 7 6.5 13t12.5 6h357q7 0 11.5 -5.5t2.5 -13.5l-4 -29q-1 -8 -7 -13.5t-13 -5.5h-296l-35 -244h253q7 0 11 -6t3 -13l-4 -29q-1 -8 -6.5 -13.5t-12.5 -5.5h-253l-36 -255h297q7 0 11.5 -5.5t2.5 -13.5l-4 -29q-1 -8 -7 -13.5t-13 -5.5h-356
q-7 0 -11.5 5.5t-2.5 13.5zM452 788q-20 0 -31.5 12.5t-11.5 32.5q0 24 17 41t39 17q19 0 31.5 -13t12.5 -33q0 -23 -17.5 -40t-39.5 -17zM257 788q-20 0 -31.5 12.5t-11.5 32.5q0 24 17 41t39 17q19 0 31.5 -13t12.5 -33q0 -23 -17.5 -40t-39.5 -17z" />
    <glyph glyph-name="Igrave" unicode="&#xcc;" horiz-adv-x="267" 
d="M58 19l93 662q1 7 6.5 13t12.5 6h44q7 0 11 -6t3 -13l-93 -662q-1 -8 -6.5 -13.5t-12.5 -5.5h-44q-7 0 -11 6t-3 13zM264 783l-132 64q-17 8 -7 24l21 34q10 14 24 3l125 -84q11 -6 3 -19l-12 -20q-6 -10 -22 -2z" />
    <glyph glyph-name="Iacute" unicode="&#xcd;" horiz-adv-x="267" 
d="M58 19l93 662q1 7 6.5 13t12.5 6h44q7 0 11 -6t3 -13l-93 -662q-1 -8 -6.5 -13.5t-12.5 -5.5h-44q-7 0 -11 6t-3 13zM142 779q-17 -8 -22 8l-7 18q-4 12 8 19l148 84q4 4 13 2.5t12 -10.5l13 -33q6 -15 -8 -21z" />
    <glyph glyph-name="Icircumflex" unicode="&#xce;" horiz-adv-x="267" 
d="M58 19l93 662q1 7 6.5 13t12.5 6h44q7 0 11 -6t3 -13l-93 -662q-1 -8 -6.5 -13.5t-12.5 -5.5h-44q-7 0 -11 6t-3 13zM108 771q-15 -11 -22 3l-9 18q-8 16 5 24l119 94q9 7 18 7h3q9 0 19 -12l84 -91q8 -9 -2 -19l-14 -15q-12 -12 -21 -4l-78 66z" />
    <glyph glyph-name="Idieresis" unicode="&#xcf;" horiz-adv-x="267" 
d="M58 19l93 662q1 7 6.5 13t12.5 6h44q7 0 11 -6t3 -13l-93 -662q-1 -8 -6.5 -13.5t-12.5 -5.5h-44q-7 0 -11 6t-3 13zM301 788q-20 0 -31.5 12.5t-11.5 32.5q0 24 17 41t39 17q19 0 31.5 -13t12.5 -33q0 -23 -17.5 -40t-39.5 -17zM106 788q-20 0 -31.5 12.5t-11.5 32.5
q0 24 17 41t39 17q19 0 31.5 -13t12.5 -33q0 -23 -17.5 -40t-39.5 -17z" />
    <glyph glyph-name="Eth" unicode="&#xd0;" horiz-adv-x="689" 
d="M59 19l43 305h-27q-15 0 -13 19l1 7q1 8 6.5 13.5t12.5 5.5h26l44 312q1 7 6.5 13t12.5 6h203q116 0 193.5 -90t77.5 -214q0 -163 -108 -279.5t-261 -116.5h-204q-7 0 -11 5.5t-2 13.5zM142 69h129q121 0 205.5 93t84.5 232q0 105 -58 171.5t-152 66.5h-130l-37 -263h183
q7 0 11.5 -5.5t2.5 -13.5l-1 -8q-2 -18 -19 -18h-184z" />
    <glyph glyph-name="Ntilde" unicode="&#xd1;" horiz-adv-x="709" 
d="M58 19l94 673q2 18 22 18h15q9 0 15 -9l317 -552h1l75 532q1 8 7.5 13.5t15.5 5.5h32q8 0 13 -5.5t4 -13.5l-95 -673q-2 -18 -22 -18h-15q-9 0 -15 9l-318 562h-2l-73 -542q-1 -7 -8 -13t-15 -6h-32q-18 0 -16 19zM311 795l-16 8q-11 7 -4 23q6 15 15 31t32 34.5t50 18.5
q18 0 32 -11t21.5 -25t17 -25t18.5 -11q25 0 42 47q8 21 25 11l14 -8q13 -8 7 -23q-9 -29 -34 -57t-62 -28q-15 0 -29 11.5t-23 25t-18.5 25t-17.5 11.5q-12 0 -22.5 -10.5t-14 -17.5t-9.5 -22q-3 -7 -10 -9.5t-14 1.5z" />
    <glyph glyph-name="Ograve" unicode="&#xd2;" horiz-adv-x="761" 
d="M341 -10q-120 0 -201 88t-81 218q0 167 114 290.5t265 123.5q119 0 200.5 -88t81.5 -218q0 -169 -112.5 -291.5t-266.5 -122.5zM349 60q116 0 207.5 101t91.5 234q0 104 -61.5 174.5t-156.5 70.5q-116 0 -207.5 -102t-91.5 -234q0 -104 61.5 -174t156.5 -70zM517 783
l-132 64q-17 8 -7 24l21 34q10 14 24 3l125 -84q11 -6 3 -19l-12 -20q-6 -10 -22 -2z" />
    <glyph glyph-name="Oacute" unicode="&#xd3;" horiz-adv-x="761" 
d="M341 -10q-120 0 -201 88t-81 218q0 167 114 290.5t265 123.5q119 0 200.5 -88t81.5 -218q0 -169 -112.5 -291.5t-266.5 -122.5zM349 60q116 0 207.5 101t91.5 234q0 104 -61.5 174.5t-156.5 70.5q-116 0 -207.5 -102t-91.5 -234q0 -104 61.5 -174t156.5 -70zM395 779
q-17 -8 -22 8l-7 18q-4 12 8 19l148 84q4 4 13 2.5t12 -10.5l13 -33q6 -15 -8 -21z" />
    <glyph glyph-name="Ocircumflex" unicode="&#xd4;" horiz-adv-x="761" 
d="M341 -10q-120 0 -201 88t-81 218q0 167 114 290.5t265 123.5q119 0 200.5 -88t81.5 -218q0 -169 -112.5 -291.5t-266.5 -122.5zM349 60q116 0 207.5 101t91.5 234q0 104 -61.5 174.5t-156.5 70.5q-116 0 -207.5 -102t-91.5 -234q0 -104 61.5 -174t156.5 -70zM360 771
q-15 -11 -22 3l-9 18q-8 16 5 24l119 94q9 7 18 7h3q9 0 19 -12l84 -91q8 -9 -2 -19l-14 -15q-12 -12 -21 -4l-78 66z" />
    <glyph glyph-name="Otilde" unicode="&#xd5;" horiz-adv-x="761" 
d="M341 -10q-120 0 -201 88t-81 218q0 167 114 290.5t265 123.5q119 0 200.5 -88t81.5 -218q0 -169 -112.5 -291.5t-266.5 -122.5zM349 60q116 0 207.5 101t91.5 234q0 104 -61.5 174.5t-156.5 70.5q-116 0 -207.5 -102t-91.5 -234q0 -104 61.5 -174t156.5 -70zM347 795
l-16 8q-11 7 -4 23q6 15 15 31t32 34.5t50 18.5q18 0 32 -11t21.5 -25t17 -25t18.5 -11q25 0 42 47q8 21 25 11l14 -8q13 -8 7 -23q-9 -29 -34 -57t-62 -28q-15 0 -29 11.5t-23 25t-18.5 25t-17.5 11.5q-12 0 -22.5 -10.5t-14 -17.5t-9.5 -22q-3 -7 -10 -9.5t-14 1.5z" />
    <glyph glyph-name="Odieresis" unicode="&#xd6;" horiz-adv-x="761" 
d="M341 -10q-120 0 -201 88t-81 218q0 167 114 290.5t265 123.5q119 0 200.5 -88t81.5 -218q0 -169 -112.5 -291.5t-266.5 -122.5zM349 60q116 0 207.5 101t91.5 234q0 104 -61.5 174.5t-156.5 70.5q-116 0 -207.5 -102t-91.5 -234q0 -104 61.5 -174t156.5 -70zM553 788
q-20 0 -31.5 12.5t-11.5 32.5q0 24 17 41t39 17q19 0 31.5 -13t12.5 -33q0 -23 -17.5 -40t-39.5 -17zM358 788q-20 0 -31.5 12.5t-11.5 32.5q0 24 17 41t39 17q19 0 31.5 -13t12.5 -33q0 -23 -17.5 -40t-39.5 -17z" />
    <glyph glyph-name="multiply" unicode="&#xd7;" 
d="M163 189l-21 23q-4 4 -3 12.5t7 13.5l115 112l-81 109q-10 14 4 27l19 17q15 13 25 0l81 -109l118 114q11 11 23 -1l21 -23q12 -12 -3 -26l-117 -114l83 -110q10 -14 -5 -27l-20 -16q-14 -12 -24 -1l-83 111l-116 -112q-12 -11 -23 0z" />
    <glyph glyph-name="Oslash" unicode="&#xd8;" horiz-adv-x="762" 
d="M48 22q-10 14 3 26l64 62q-55 82 -55 185q0 73 28.5 147t77 133.5t120.5 97t153 37.5q123 0 205 -93l67 65q13 13 23 0l5 -5q9 -13 -4 -26l-67 -65q53 -80 53 -182q0 -74 -28 -147.5t-76.5 -133t-121 -96.5t-153.5 -37q-121 0 -202 89l-65 -62q-5 -5 -12 -4.5t-11 5.5z
M170 162l420 404q-63 74 -159 74q-121 0 -210 -104.5t-89 -231.5q0 -80 38 -142zM193 130q60 -70 157 -70q81 0 150.5 49.5t109 126.5t39.5 159q0 76 -36 139z" />
    <glyph glyph-name="Ugrave" unicode="&#xd9;" horiz-adv-x="658" 
d="M84 246l60 435q4 19 20 19h43q7 0 11.5 -5.5t2.5 -13.5l-59 -429q-3 -21 -3 -40q0 -69 36 -110t102 -41q75 0 128 53.5t64 135.5l60 431q1 7 6.5 13t12.5 6h43q7 0 11 -6t3 -13l-60 -435q-16 -117 -87.5 -186.5t-189.5 -69.5q-92 0 -149.5 58.5t-57.5 154.5q0 20 3 43z
M460 783l-132 64q-17 8 -7 24l21 34q10 14 24 3l125 -84q11 -6 3 -19l-12 -20q-6 -10 -22 -2z" />
    <glyph glyph-name="Uacute" unicode="&#xda;" horiz-adv-x="658" 
d="M84 246l60 435q4 19 20 19h43q7 0 11.5 -5.5t2.5 -13.5l-59 -429q-3 -21 -3 -40q0 -69 36 -110t102 -41q75 0 128 53.5t64 135.5l60 431q1 7 6.5 13t12.5 6h43q7 0 11 -6t3 -13l-60 -435q-16 -117 -87.5 -186.5t-189.5 -69.5q-92 0 -149.5 58.5t-57.5 154.5q0 20 3 43z
M338 779q-17 -8 -22 8l-7 18q-4 12 8 19l148 84q4 4 13 2.5t12 -10.5l13 -33q6 -15 -8 -21z" />
    <glyph glyph-name="Ucircumflex" unicode="&#xdb;" horiz-adv-x="658" 
d="M84 246l60 435q4 19 20 19h43q7 0 11.5 -5.5t2.5 -13.5l-59 -429q-3 -21 -3 -40q0 -69 36 -110t102 -41q75 0 128 53.5t64 135.5l60 431q1 7 6.5 13t12.5 6h43q7 0 11 -6t3 -13l-60 -435q-16 -117 -87.5 -186.5t-189.5 -69.5q-92 0 -149.5 58.5t-57.5 154.5q0 20 3 43z
M304 771q-15 -11 -22 3l-9 18q-8 16 5 24l119 94q9 7 18 7h3q9 0 19 -12l84 -91q8 -9 -2 -19l-14 -15q-12 -12 -21 -4l-78 66z" />
    <glyph glyph-name="Udieresis" unicode="&#xdc;" horiz-adv-x="658" 
d="M84 246l60 435q4 19 20 19h43q7 0 11.5 -5.5t2.5 -13.5l-59 -429q-3 -21 -3 -40q0 -69 36 -110t102 -41q75 0 128 53.5t64 135.5l60 431q1 7 6.5 13t12.5 6h43q7 0 11 -6t3 -13l-60 -435q-16 -117 -87.5 -186.5t-189.5 -69.5q-92 0 -149.5 58.5t-57.5 154.5q0 20 3 43z
M495 788q-20 0 -31.5 12.5t-11.5 32.5q0 24 17 41t39 17q19 0 31.5 -13t12.5 -33q0 -23 -17.5 -40t-39.5 -17zM300 788q-20 0 -31.5 12.5t-11.5 32.5q0 24 17 41t39 17q19 0 31.5 -13t12.5 -33q0 -23 -17.5 -40t-39.5 -17z" />
    <glyph glyph-name="Yacute" unicode="&#xdd;" horiz-adv-x="536" 
d="M190 19l45 318l-170 339q-5 9 -0.5 16.5t14.5 7.5h46q9 0 14 -9l139 -285h2l222 285q7 9 16 9h48q11 0 14 -9.5t-4 -19.5l-264 -333l-45 -319q-1 -7 -7 -13t-13 -6h-42q-7 0 -11.5 5.5t-3.5 13.5zM272 779q-17 -8 -22 8l-7 18q-4 12 8 19l148 84q4 4 13 2.5t12 -10.5
l13 -33q6 -15 -8 -21z" />
    <glyph glyph-name="Thorn" unicode="&#xde;" horiz-adv-x="555" 
d="M58 19l93 661q4 20 20 20h42q7 0 11.5 -5.5t3.5 -13.5l-15 -107h141q73 0 123 -57.5t50 -142.5q0 -100 -69.5 -173t-164.5 -73h-143l-15 -109q-4 -19 -20 -19h-42q-7 0 -11.5 5.5t-3.5 13.5zM160 202h137q59 0 106 51t47 121q0 53 -32 88.5t-79 35.5h-137z" />
    <glyph glyph-name="germandbls" unicode="&#xdf;" horiz-adv-x="579" 
d="M235 37l11 27q6 17 24 11q37 -20 70 -20q40 0 68 29.5t28 73.5q0 28 -15 55.5t-33 46.5t-33 43.5t-15 48.5q0 25 16 52.5t36 48t36 49t16 56.5q0 38 -25 62t-70 24q-75 0 -119 -58.5t-56 -148.5l-91 -652q-1 -9 -8 -16t-15 -7h-36q-8 0 -12.5 7t-3.5 16l92 645
q18 128 83 204t174 76q66 0 113.5 -37t47.5 -109q0 -48 -26 -89.5t-51.5 -71t-25.5 -47.5q0 -13 15 -34t33 -41.5t33 -54.5t15 -70q0 -73 -50 -120.5t-116 -47.5q-50 0 -97 22q-20 9 -13 27z" />
    <glyph glyph-name="agrave" unicode="&#xe0;" horiz-adv-x="513" 
d="M451 443l-50 -426q-1 -17 -20 -17h-23q-13 0 -15 17l-4 29l-7 -6q-7 -6 -19.5 -14.5t-28 -16.5t-38 -14t-45.5 -6q-68 0 -113 59.5t-45 144.5q0 124 64.5 201.5t160.5 77.5q33 0 61.5 -12.5t40.5 -25.5l13 -12l15 29q4 11 15 11h23q10 0 13 -4t2 -15zM340 130l27 221
q-1 2 -3.5 6t-12 13.5t-20.5 16.5t-29.5 13t-38.5 6q-57 0 -101 -55t-44 -158q0 -54 27.5 -96t75.5 -42q33 0 62.5 18.5t42.5 37.5zM347 562l-132 64q-17 8 -7 24l21 34q10 14 24 3l125 -84q11 -6 3 -19l-12 -20q-6 -10 -22 -2z" />
    <glyph glyph-name="aacute" unicode="&#xe1;" horiz-adv-x="513" 
d="M451 443l-50 -426q-1 -17 -20 -17h-23q-13 0 -15 17l-4 29l-7 -6q-7 -6 -19.5 -14.5t-28 -16.5t-38 -14t-45.5 -6q-68 0 -113 59.5t-45 144.5q0 124 64.5 201.5t160.5 77.5q33 0 61.5 -12.5t40.5 -25.5l13 -12l15 29q4 11 15 11h23q10 0 13 -4t2 -15zM340 130l27 221
q-1 2 -3.5 6t-12 13.5t-20.5 16.5t-29.5 13t-38.5 6q-57 0 -101 -55t-44 -158q0 -54 27.5 -96t75.5 -42q33 0 62.5 18.5t42.5 37.5zM256 557q-17 -8 -22 8l-7 18q-4 12 8 19l148 84q4 4 13 2.5t12 -10.5l13 -33q6 -15 -8 -21z" />
    <glyph glyph-name="acircumflex" unicode="&#xe2;" horiz-adv-x="513" 
d="M451 443l-50 -426q-1 -17 -20 -17h-23q-13 0 -15 17l-4 29l-7 -6q-7 -6 -19.5 -14.5t-28 -16.5t-38 -14t-45.5 -6q-68 0 -113 59.5t-45 144.5q0 124 64.5 201.5t160.5 77.5q33 0 61.5 -12.5t40.5 -25.5l13 -12l15 29q4 11 15 11h23q10 0 13 -4t2 -15zM340 130l27 221
q-1 2 -3.5 6t-12 13.5t-20.5 16.5t-29.5 13t-38.5 6q-57 0 -101 -55t-44 -158q0 -54 27.5 -96t75.5 -42q33 0 62.5 18.5t42.5 37.5zM178 554l-9 18q-8 16 5 24l119 94q9 7 18 7h3q9 0 19 -12l84 -91q8 -9 -2 -19l-14 -15q-12 -12 -21 -4l-78 66l-102 -71q-15 -11 -22 3z" />
    <glyph glyph-name="atilde" unicode="&#xe3;" horiz-adv-x="513" 
d="M451 443l-50 -426q-1 -17 -20 -17h-23q-13 0 -15 17l-4 29l-7 -6q-7 -6 -19.5 -14.5t-28 -16.5t-38 -14t-45.5 -6q-68 0 -113 59.5t-45 144.5q0 124 64.5 201.5t160.5 77.5q33 0 61.5 -12.5t40.5 -25.5l13 -12l15 29q4 11 15 11h23q10 0 13 -4t2 -15zM340 130l27 221
q-1 2 -3.5 6t-12 13.5t-20.5 16.5t-29.5 13t-38.5 6q-57 0 -101 -55t-44 -158q0 -54 27.5 -96t75.5 -42q33 0 62.5 18.5t42.5 37.5zM187 575l-16 8q-11 7 -4 23q6 15 15 31t31.5 34.5t48.5 18.5q23 0 39 -18t27.5 -36t24.5 -18q25 0 42 47q8 21 25 11l14 -8q13 -8 7 -23
q-9 -28 -33 -56.5t-60 -28.5q-16 0 -30.5 11.5t-22.5 25t-18.5 25t-19.5 11.5q-12 0 -22.5 -10.5t-14 -17.5t-9.5 -22q-3 -7 -10 -9.5t-14 1.5z" />
    <glyph glyph-name="adieresis" unicode="&#xe4;" horiz-adv-x="513" 
d="M451 443l-50 -426q-1 -17 -20 -17h-23q-13 0 -15 17l-4 29l-7 -6q-7 -6 -19.5 -14.5t-28 -16.5t-38 -14t-45.5 -6q-68 0 -113 59.5t-45 144.5q0 124 64.5 201.5t160.5 77.5q33 0 61.5 -12.5t40.5 -25.5l13 -12l15 29q4 11 15 11h23q10 0 13 -4t2 -15zM340 130l27 221
q-1 2 -3.5 6t-12 13.5t-20.5 16.5t-29.5 13t-38.5 6q-57 0 -101 -55t-44 -158q0 -54 27.5 -96t75.5 -42q33 0 62.5 18.5t42.5 37.5zM387 581q-20 0 -31.5 12.5t-11.5 32.5q0 24 17 41t39 17q20 0 32 -13t12 -33q0 -23 -17 -40t-40 -17zM212 581q-19 0 -31 12.5t-12 32.5
q0 24 17 41t40 17q19 0 31 -13t12 -33q0 -23 -17 -40t-40 -17z" />
    <glyph glyph-name="aring" unicode="&#xe5;" horiz-adv-x="513" 
d="M451 443l-50 -426q-1 -17 -20 -17h-23q-13 0 -15 17l-4 29l-7 -6q-7 -6 -19.5 -14.5t-28 -16.5t-38 -14t-45.5 -6q-68 0 -113 59.5t-45 144.5q0 124 64.5 201.5t160.5 77.5q33 0 61.5 -12.5t40.5 -25.5l13 -12l15 29q4 11 15 11h23q10 0 13 -4t2 -15zM340 130l27 221
q-1 2 -3.5 6t-12 13.5t-20.5 16.5t-29.5 13t-38.5 6q-57 0 -101 -55t-44 -158q0 -54 27.5 -96t75.5 -42q33 0 62.5 18.5t42.5 37.5zM287 513q-37 0 -61 27t-24 67q0 52 34 88t81 36q36 0 60.5 -27.5t24.5 -66.5q0 -51 -34 -87.5t-81 -36.5zM293 561q23 0 41 21t18 48
q0 22 -11 36.5t-31 14.5q-23 0 -41.5 -19.5t-18.5 -46.5q0 -22 11.5 -38t31.5 -16z" />
    <glyph glyph-name="ae" unicode="&#xe6;" horiz-adv-x="710" 
d="M150 -11q-56 0 -92 34.5t-36 91.5q0 73 52 125t131 52q24 0 48 -3t35 -6l12 -3q14 73 4.5 100t-48.5 27q-51 0 -126 -25q-19 -6 -24 15l-6 26q-4 15 21 23q70 26 150 26q79 0 102 -72q60 72 153 72q68 0 106.5 -33t38.5 -87q0 -70 -63.5 -109.5t-180.5 -39.5q-32 0 -68 3
q-6 -59 26 -105t83 -46q46 0 101 36q22 14 34 -3l12 -17q10 -13 -8 -29q-66 -53 -155 -53q-85 0 -132 82q-30 -34 -76 -58t-94 -24zM370 266q32 -3 59 -3q79 0 124 21.5t45 63.5q0 25 -21.5 42t-59.5 17q-49 0 -92 -42.5t-55 -98.5zM206 232q-48 0 -80 -29.5t-32 -78.5
q0 -30 20 -49.5t54 -19.5q31 0 61 19t48 44l15 104q-30 10 -86 10z" />
    <glyph glyph-name="ccedilla" unicode="&#xe7;" horiz-adv-x="469" 
d="M43 196q0 120 70.5 198t172.5 78q101 0 145 -76q8 -17 -8 -30l-21 -18q-16 -15 -29 6q-32 52 -88 52q-65 0 -114.5 -55.5t-49.5 -144.5q0 -62 30.5 -106.5t82.5 -44.5q62 0 109 70q12 20 30 7l24 -17q13 -9 1 -30q-21 -37 -61.5 -63.5t-91.5 -31.5l-43 -57q12 4 25 4
q31 0 52.5 -19t21.5 -54q0 -46 -36.5 -75t-86.5 -29q-52 0 -81 31q-7 9 3 21l9 12q11 16 22 5q22 -20 47 -20q28 0 46 12t18 37q0 33 -48 33q-29 0 -49 -10q-6 -2 -10.5 4t-1.5 11l58 96q-66 13 -107 69.5t-41 134.5z" />
    <glyph glyph-name="egrave" unicode="&#xe8;" horiz-adv-x="462" 
d="M42 193q0 115 67.5 197t173.5 82q61 0 100.5 -33.5t39.5 -86.5q0 -68 -66 -109t-184 -41q-29 0 -64 3q-5 -60 26.5 -105t87.5 -45q45 0 101 41q17 12 29 -6l13 -20q10 -15 -7 -28q-67 -53 -143 -53q-78 0 -126 59t-48 145zM118 265q33 -3 63 -3q81 0 125 22.5t44 63.5
q0 24 -19.5 41.5t-52.5 17.5q-56 0 -102.5 -43t-57.5 -99zM365 562l-132 64q-17 8 -7 24l21 34q10 14 24 3l125 -84q11 -6 3 -19l-12 -20q-6 -10 -22 -2z" />
    <glyph glyph-name="eacute" unicode="&#xe9;" horiz-adv-x="462" 
d="M42 193q0 115 67.5 197t173.5 82q61 0 100.5 -33.5t39.5 -86.5q0 -68 -66 -109t-184 -41q-29 0 -64 3q-5 -60 26.5 -105t87.5 -45q45 0 101 41q17 12 29 -6l13 -20q10 -15 -7 -28q-67 -53 -143 -53q-78 0 -126 59t-48 145zM118 265q33 -3 63 -3q81 0 125 22.5t44 63.5
q0 24 -19.5 41.5t-52.5 17.5q-56 0 -102.5 -43t-57.5 -99zM253 557q-17 -8 -22 8l-7 18q-4 12 8 19l148 84q4 4 13 2.5t12 -10.5l13 -33q6 -15 -8 -21z" />
    <glyph glyph-name="ecircumflex" unicode="&#xea;" horiz-adv-x="462" 
d="M42 193q0 115 67.5 197t173.5 82q61 0 100.5 -33.5t39.5 -86.5q0 -68 -66 -109t-184 -41q-29 0 -64 3q-5 -60 26.5 -105t87.5 -45q45 0 101 41q17 12 29 -6l13 -20q10 -15 -7 -28q-67 -53 -143 -53q-78 0 -126 59t-48 145zM118 265q33 -3 63 -3q81 0 125 22.5t44 63.5
q0 24 -19.5 41.5t-52.5 17.5q-56 0 -102.5 -43t-57.5 -99zM189 554l-9 18q-8 16 5 24l119 94q9 7 18 7h3q9 0 19 -12l84 -91q8 -9 -2 -19l-14 -15q-12 -12 -21 -4l-78 66l-102 -71q-15 -11 -22 3z" />
    <glyph glyph-name="edieresis" unicode="&#xeb;" horiz-adv-x="462" 
d="M42 193q0 115 67.5 197t173.5 82q61 0 100.5 -33.5t39.5 -86.5q0 -68 -66 -109t-184 -41q-29 0 -64 3q-5 -60 26.5 -105t87.5 -45q45 0 101 41q17 12 29 -6l13 -20q10 -15 -7 -28q-67 -53 -143 -53q-78 0 -126 59t-48 145zM118 265q33 -3 63 -3q81 0 125 22.5t44 63.5
q0 24 -19.5 41.5t-52.5 17.5q-56 0 -102.5 -43t-57.5 -99zM385 581q-20 0 -31.5 12.5t-11.5 32.5q0 24 17 41t39 17q20 0 32 -13t12 -33q0 -23 -17 -40t-40 -17zM210 581q-19 0 -31 12.5t-12 32.5q0 24 17 41t40 17q19 0 31 -13t12 -33q0 -23 -17 -40t-40 -17z" />
    <glyph glyph-name="igrave" unicode="&#xec;" horiz-adv-x="231" 
d="M59 0q-8 0 -13 6.5t-4 15.5l58 418q1 9 7.5 15.5t15.5 6.5h36q7 0 12 -7t3 -15l-58 -418q-1 -9 -8.5 -15.5t-15.5 -6.5h-33zM204 562l-132 64q-17 8 -7 24l21 34q10 14 24 3l125 -84q11 -6 3 -19l-12 -20q-6 -10 -22 -2z" />
    <glyph glyph-name="iacute" unicode="&#xed;" horiz-adv-x="231" 
d="M59 0q-8 0 -13 6.5t-4 15.5l58 418q1 9 7.5 15.5t15.5 6.5h36q7 0 12 -7t3 -15l-58 -418q-1 -9 -8.5 -15.5t-15.5 -6.5h-33zM100 557q-17 -8 -22 8l-7 18q-4 12 8 19l148 84q4 4 13 2.5t12 -10.5l13 -33q6 -15 -8 -21z" />
    <glyph glyph-name="icircumflex" unicode="&#xee;" horiz-adv-x="231" 
d="M58 0q-8 0 -13 6.5t-4 15.5l58 418q1 9 7.5 15.5t15.5 6.5h36q7 0 12 -7t3 -15l-58 -418q-1 -9 -8.5 -15.5t-15.5 -6.5h-33zM31 554l-9 18q-8 16 5 24l119 94q9 7 18 7h3q9 0 19 -12l84 -91q8 -9 -2 -19l-14 -15q-12 -12 -21 -4l-78 66l-102 -71q-15 -11 -22 3z" />
    <glyph glyph-name="idieresis" unicode="&#xef;" horiz-adv-x="231" 
d="M59 0q-8 0 -13 6.5t-4 15.5l58 418q1 9 7.5 15.5t15.5 6.5h36q7 0 12 -7t3 -15l-58 -418q-1 -9 -8.5 -15.5t-15.5 -6.5h-33zM238 581q-20 0 -31.5 12.5t-11.5 32.5q0 24 17 41t39 17q20 0 32 -13t12 -33q0 -23 -17 -40t-40 -17zM63 581q-19 0 -31 12.5t-12 32.5
q0 24 17 41t40 17q19 0 31 -13t12 -33q0 -23 -17 -40t-40 -17z" />
    <glyph glyph-name="eth" unicode="&#xf0;" horiz-adv-x="531" 
d="M41 190q0 100 65 179.5t168 79.5q36 0 67.5 -11.5t45.5 -23.5l14 -11q-6 93 -85 177l-100 -58q-16 -9 -22 7l-3 8q-8 16 10 25l83 48q-40 35 -77 51q-24 8 -13 30l13 23q9 16 21 10q66 -32 117 -78l74 43q14 9 23 -7l3 -7q8 -17 -10 -26l-59 -34q119 -134 95 -332
q-16 -132 -80 -212.5t-176 -80.5q-74 0 -124 57.5t-50 142.5zM224 58q59 0 101.5 44t59.5 100t17 113q-2 3 -5.5 7.5t-16 16t-26.5 20.5t-37 16t-47 7q-68 0 -112.5 -59t-44.5 -131q0 -58 30 -96t81 -38z" />
    <glyph glyph-name="ntilde" unicode="&#xf1;" horiz-adv-x="509" 
d="M59 0q-8 0 -13 6.5t-4 15.5l58 418q2 22 23 22h20q12 0 15 -14l5 -35l7 6q7 6 20 14.5t30 17.5t40 15t47 6q152 0 126 -196l-37 -254q-1 -9 -8 -15.5t-15 -6.5h-35q-8 0 -13 6.5t-4 15.5l37 254q19 130 -67 130q-21 0 -41.5 -7t-36 -16.5t-27 -19t-18.5 -16.5l-7 -7
l-45 -318q-1 -9 -8 -15.5t-17 -6.5h-32zM198 575l-16 8q-11 7 -4 23q6 15 15 31t31.5 34.5t48.5 18.5q23 0 39 -18t27.5 -36t24.5 -18q25 0 42 47q8 21 25 11l14 -8q13 -8 7 -23q-9 -28 -33 -56.5t-60 -28.5q-16 0 -30.5 11.5t-22.5 25t-18.5 25t-19.5 11.5
q-12 0 -22.5 -10.5t-14 -17.5t-9.5 -22q-3 -7 -10 -9.5t-14 1.5z" />
    <glyph glyph-name="ograve" unicode="&#xf2;" horiz-adv-x="519" 
d="M41 198q0 112 70.5 193t171.5 81q73 0 126 -61t53 -146q0 -113 -71 -194.5t-172 -81.5q-73 0 -125.5 61.5t-52.5 147.5zM225 55q66 0 116 60.5t50 143.5q0 62 -32 104.5t-82 42.5q-66 0 -116 -59.5t-50 -142.5q0 -64 31.5 -106.5t82.5 -42.5zM355 562l-132 64
q-17 8 -7 24l21 34q10 14 24 3l125 -84q11 -6 3 -19l-12 -20q-6 -10 -22 -2z" />
    <glyph glyph-name="oacute" unicode="&#xf3;" horiz-adv-x="519" 
d="M41 198q0 112 70.5 193t171.5 81q73 0 126 -61t53 -146q0 -113 -71 -194.5t-172 -81.5q-73 0 -125.5 61.5t-52.5 147.5zM225 55q66 0 116 60.5t50 143.5q0 62 -32 104.5t-82 42.5q-66 0 -116 -59.5t-50 -142.5q0 -64 31.5 -106.5t82.5 -42.5zM252 557q-17 -8 -22 8l-7 18
q-4 12 8 19l148 84q4 4 13 2.5t12 -10.5l13 -33q6 -15 -8 -21z" />
    <glyph glyph-name="ocircumflex" unicode="&#xf4;" horiz-adv-x="519" 
d="M41 198q0 112 70.5 193t171.5 81q73 0 126 -61t53 -146q0 -113 -71 -194.5t-172 -81.5q-73 0 -125.5 61.5t-52.5 147.5zM225 55q66 0 116 60.5t50 143.5q0 62 -32 104.5t-82 42.5q-66 0 -116 -59.5t-50 -142.5q0 -64 31.5 -106.5t82.5 -42.5zM182 554l-9 18q-8 16 5 24
l119 94q9 7 18 7h3q9 0 19 -12l84 -91q8 -9 -2 -19l-14 -15q-12 -12 -21 -4l-78 66l-102 -71q-15 -11 -22 3z" />
    <glyph glyph-name="otilde" unicode="&#xf5;" horiz-adv-x="519" 
d="M41 198q0 112 70.5 193t171.5 81q73 0 126 -61t53 -146q0 -113 -71 -194.5t-172 -81.5q-73 0 -125.5 61.5t-52.5 147.5zM225 55q66 0 116 60.5t50 143.5q0 62 -32 104.5t-82 42.5q-66 0 -116 -59.5t-50 -142.5q0 -64 31.5 -106.5t82.5 -42.5zM192 575l-16 8q-11 7 -4 23
q6 15 15 31t31.5 34.5t48.5 18.5q23 0 39 -18t27.5 -36t24.5 -18q25 0 42 47q8 21 25 11l14 -8q13 -8 7 -23q-9 -28 -33 -56.5t-60 -28.5q-16 0 -30.5 11.5t-22.5 25t-18.5 25t-19.5 11.5q-12 0 -22.5 -10.5t-14 -17.5t-9.5 -22q-3 -7 -10 -9.5t-14 1.5z" />
    <glyph glyph-name="odieresis" unicode="&#xf6;" horiz-adv-x="519" 
d="M41 198q0 112 70.5 193t171.5 81q73 0 126 -61t53 -146q0 -113 -71 -194.5t-172 -81.5q-73 0 -125.5 61.5t-52.5 147.5zM225 55q66 0 116 60.5t50 143.5q0 62 -32 104.5t-82 42.5q-66 0 -116 -59.5t-50 -142.5q0 -64 31.5 -106.5t82.5 -42.5zM396 581q-20 0 -31.5 12.5
t-11.5 32.5q0 24 17 41t39 17q20 0 32 -13t12 -33q0 -23 -17 -40t-40 -17zM221 581q-19 0 -31 12.5t-12 32.5q0 24 17 41t40 17q19 0 31 -13t12 -33q0 -23 -17 -40t-40 -17z" />
    <glyph glyph-name="divide" unicode="&#xf7;" 
d="M324 472q-20 0 -33 14.5t-13 35.5q0 26 19 45t43 19q19 0 32 -14.5t13 -34.5q0 -26 -18.5 -45.5t-42.5 -19.5zM132 314q-7 0 -11 5.5t-3 13.5l4 28q1 7 7 13t13 6h344q7 0 11 -5.5t3 -13.5l-4 -28q-1 -7 -6.5 -13t-12.5 -6h-345zM228 164q0 26 18.5 45t42.5 19
q20 0 33 -14t13 -35q0 -26 -18.5 -45.5t-43.5 -19.5q-19 0 -32 14.5t-13 35.5z" />
    <glyph glyph-name="oslash" unicode="&#xf8;" horiz-adv-x="519" 
d="M41 198q0 112 70.5 193t171.5 81q72 0 124 -59l28 27q17 15 29 0l5 -5q13 -16 -4 -31l-31 -30q28 -50 28 -109q0 -113 -71 -194.5t-172 -81.5q-73 0 -124 59l-21 -21q-15 -13 -28 0l-4 7q-6 6 -4.5 15t7.5 15l23 22q-27 52 -27 112zM111 204q0 -38 10 -67l236 228
q-33 41 -80 41q-66 0 -116 -59.5t-50 -142.5zM225 55q66 0 116 60.5t50 143.5q0 33 -11 63l-236 -227q32 -40 81 -40z" />
    <glyph glyph-name="ugrave" unicode="&#xf9;" horiz-adv-x="496" 
d="M182 -11q-80 0 -108.5 48t-14.5 143l35 260q2 8 9 15t14 7h35q8 0 13.5 -7t4.5 -15l-36 -261q-10 -67 4.5 -95.5t61.5 -28.5q15 0 29.5 4t25.5 11t21.5 14.5t18 15.5t13 15t8.5 11l3 4l45 310q1 8 8 15t15 7h33q8 0 13.5 -7t4.5 -15l-59 -418q-2 -22 -23 -22h-20
q-13 0 -16 20l-4 29l-4 -4q-3 -4 -9 -9t-14 -11.5t-19.5 -12.5t-24.5 -11.5t-29.5 -8.5t-33.5 -3zM303 558l-132 64q-17 8 -7 24l21 34q10 14 24 3l125 -84q11 -6 3 -19l-12 -20q-6 -10 -22 -2z" />
    <glyph glyph-name="uacute" unicode="&#xfa;" horiz-adv-x="496" 
d="M182 -11q-80 0 -108.5 48t-14.5 143l35 260q2 8 9 15t14 7h35q8 0 13.5 -7t4.5 -15l-36 -261q-10 -67 4.5 -95.5t61.5 -28.5q15 0 29.5 4t25.5 11t21.5 14.5t18 15.5t13 15t8.5 11l3 4l45 310q1 8 8 15t15 7h33q8 0 13.5 -7t4.5 -15l-59 -418q-2 -22 -23 -22h-20
q-13 0 -16 20l-4 29l-4 -4q-3 -4 -9 -9t-14 -11.5t-19.5 -12.5t-24.5 -11.5t-29.5 -8.5t-33.5 -3zM253 557q-17 -8 -22 8l-7 18q-4 12 8 19l148 84q4 4 13 2.5t12 -10.5l13 -33q6 -15 -8 -21z" />
    <glyph glyph-name="ucircumflex" unicode="&#xfb;" horiz-adv-x="496" 
d="M182 -11q-80 0 -108.5 48t-14.5 143l35 260q2 8 9 15t14 7h35q8 0 13.5 -7t4.5 -15l-36 -261q-10 -67 4.5 -95.5t61.5 -28.5q15 0 29.5 4t25.5 11t21.5 14.5t18 15.5t13 15t8.5 11l3 4l45 310q1 8 8 15t15 7h33q8 0 13.5 -7t4.5 -15l-59 -418q-2 -22 -23 -22h-20
q-13 0 -16 20l-4 29l-4 -4q-3 -4 -9 -9t-14 -11.5t-19.5 -12.5t-24.5 -11.5t-29.5 -8.5t-33.5 -3zM168 554l-9 18q-8 16 5 24l119 94q9 7 18 7h3q9 0 19 -12l84 -91q8 -9 -2 -19l-14 -15q-12 -12 -21 -4l-78 66l-102 -71q-15 -11 -22 3z" />
    <glyph glyph-name="udieresis" unicode="&#xfc;" horiz-adv-x="496" 
d="M182 -11q-80 0 -108.5 48t-14.5 143l35 260q2 8 9 15t14 7h35q8 0 13.5 -7t4.5 -15l-36 -261q-10 -67 4.5 -95.5t61.5 -28.5q15 0 29.5 4t25.5 11t21.5 14.5t18 15.5t13 15t8.5 11l3 4l45 310q1 8 8 15t15 7h33q8 0 13.5 -7t4.5 -15l-59 -418q-2 -22 -23 -22h-20
q-13 0 -16 20l-4 29l-4 -4q-3 -4 -9 -9t-14 -11.5t-19.5 -12.5t-24.5 -11.5t-29.5 -8.5t-33.5 -3zM369 581q-20 0 -31.5 12.5t-11.5 32.5q0 24 17 41t39 17q20 0 32 -13t12 -33q0 -23 -17 -40t-40 -17zM194 581q-19 0 -31 12.5t-12 32.5q0 24 17 41t40 17q19 0 31 -13
t12 -33q0 -23 -17 -40t-40 -17z" />
    <glyph glyph-name="yacute" unicode="&#xfd;" horiz-adv-x="485" 
d="M164 0l-112 437q-3 11 2.5 18t16.5 7h37q13 0 16 -13l85 -369h3l188 369q6 13 20 13h41q11 0 15.5 -7.5t-1.5 -18.5l-352 -660q-7 -14 -20 -14h-43q-12 0 -15 7t3 19zM252 557q-17 -8 -22 8l-7 18q-4 12 8 19l148 84q4 4 13 2.5t12 -10.5l13 -33q6 -15 -8 -21z" />
    <glyph glyph-name="thorn" unicode="&#xfe;" horiz-adv-x="516" 
d="M117 26l-34 -241q-1 -9 -8 -16t-15 -7h-34q-8 0 -13.5 7t-4.5 16l127 893q1 9 7.5 15.5t14.5 6.5h35q8 0 13 -6.5t4 -15.5l-35 -246q52 40 120 40q73 0 118.5 -61t45.5 -144q0 -117 -67 -197.5t-169 -80.5q-57 0 -105 37zM161 345l-33 -252q43 -38 95 -38
q65 0 112.5 61.5t47.5 144.5q0 59 -29.5 102t-78.5 43q-62 0 -114 -61z" />
    <glyph glyph-name="ydieresis" unicode="&#xff;" horiz-adv-x="485" 
d="M164 0l-112 437q-3 11 2.5 18t16.5 7h37q13 0 16 -13l85 -369h3l188 369q6 13 20 13h41q11 0 15.5 -7.5t-1.5 -18.5l-352 -660q-7 -14 -20 -14h-43q-12 0 -15 7t3 19zM374 581q-20 0 -31.5 12.5t-11.5 32.5q0 24 17 41t39 17q20 0 32 -13t12 -33q0 -23 -17 -40t-40 -17z
M199 581q-19 0 -31 12.5t-12 32.5q0 24 17 41t40 17q19 0 31 -13t12 -33q0 -23 -17 -40t-40 -17z" />
    <glyph glyph-name="Amacron" unicode="&#x100;" horiz-adv-x="615" 
d="M-9 0q-10 0 -13.5 8t1.5 18l369 673q6 11 17 11h9q10 0 14 -11l178 -673q2 -10 -3.5 -18t-15.5 -8h-42q-13 0 -15 11l-40 165h-312l-85 -165q-7 -11 -19 -11h-43zM175 238h256l-79 328h-6zM268 821q-16 0 -14 18l3 21q2 19 20 19h230q17 0 14 -19l-2 -21q-4 -18 -20 -18
h-231z" />
    <glyph glyph-name="amacron" unicode="&#x101;" horiz-adv-x="513" 
d="M451 443l-50 -426q-1 -17 -20 -17h-23q-13 0 -15 17l-4 29l-7 -6q-7 -6 -19.5 -14.5t-28 -16.5t-38 -14t-45.5 -6q-68 0 -113 59.5t-45 144.5q0 124 64.5 201.5t160.5 77.5q33 0 61.5 -12.5t40.5 -25.5l13 -12l15 29q4 11 15 11h23q10 0 13 -4t2 -15zM340 130l27 221
q-1 2 -3.5 6t-12 13.5t-20.5 16.5t-29.5 13t-38.5 6q-57 0 -101 -55t-44 -158q0 -54 27.5 -96t75.5 -42q33 0 62.5 18.5t42.5 37.5zM193 583q-17 0 -15 18l3 21q3 19 20 19h231q7 0 11 -5.5t3 -13.5l-3 -21q-2 -18 -20 -18h-230z" />
    <glyph glyph-name="Abreve" unicode="&#x102;" horiz-adv-x="615" 
d="M-9 0q-10 0 -13.5 8t1.5 18l369 673q6 11 17 11h9q10 0 14 -11l178 -673q2 -10 -3.5 -18t-15.5 -8h-42q-13 0 -15 11l-40 165h-312l-85 -165q-7 -11 -19 -11h-43zM175 238h256l-79 328h-6zM378 771q-44 0 -75.5 33t-30.5 81q0 20 16 20h19q13 0 15 -17q10 -64 62 -64
q23 0 44.5 18.5t33.5 45.5q8 17 19 17h25q17 0 10 -20q-15 -50 -51.5 -82t-86.5 -32z" />
    <glyph glyph-name="abreve" unicode="&#x103;" horiz-adv-x="513" 
d="M451 443l-50 -426q-1 -17 -20 -17h-23q-13 0 -15 17l-4 29l-7 -6q-7 -6 -19.5 -14.5t-28 -16.5t-38 -14t-45.5 -6q-68 0 -113 59.5t-45 144.5q0 124 64.5 201.5t160.5 77.5q33 0 61.5 -12.5t40.5 -25.5l13 -12l15 29q4 11 15 11h23q10 0 13 -4t2 -15zM340 130l27 221
q-1 2 -3.5 6t-12 13.5t-20.5 16.5t-29.5 13t-38.5 6q-57 0 -101 -55t-44 -158q0 -54 27.5 -96t75.5 -42q33 0 62.5 18.5t42.5 37.5zM292 531q-44 0 -75.5 33t-30.5 81q0 20 16 20h19q13 0 15 -17q10 -64 62 -64q23 0 44.5 18.5t33.5 45.5q8 17 19 17h25q17 0 10 -20
q-15 -50 -51.5 -82t-86.5 -32z" />
    <glyph glyph-name="Aogonek" unicode="&#x104;" horiz-adv-x="615" 
d="M-9 0q-10 0 -13.5 8t1.5 18l369 673q6 11 17 11h9q10 0 14 -11l178 -673q2 -8 -3 -15.5t-13 -10.5q-122 -67 -122 -142q0 -42 44 -42q28 0 67 26q6 5 11 3.5t4 -8.5l-4 -36q-2 -16 -15 -24q-39 -21 -83 -21q-42 0 -65.5 24t-23.5 61q0 55 34 94t93 74l-40 167h-312
l-85 -165q-7 -11 -19 -11h-43zM175 238h256l-79 328h-6z" />
    <glyph glyph-name="aogonek" unicode="&#x105;" horiz-adv-x="513" 
d="M451 443l-50 -426q-1 -9 -13 -16q-124 -68 -124 -143q0 -42 44 -42q28 0 67 26q6 5 11 3.5t4 -8.5l-4 -36q-2 -16 -15 -24q-39 -21 -83 -21q-42 0 -65.5 24t-23.5 61q0 90 144 176l-4 29l-7 -6q-7 -6 -19.5 -14.5t-28 -16.5t-38 -14t-45.5 -6q-68 0 -113 59.5t-45 144.5
q0 124 64.5 201.5t160.5 77.5q33 0 61.5 -12.5t40.5 -25.5l13 -12l15 29q4 11 15 11h23q10 0 13 -4t2 -15zM340 130l27 221q-1 2 -3.5 6t-12 13.5t-20.5 16.5t-29.5 13t-38.5 6q-57 0 -101 -55t-44 -158q0 -54 27.5 -96t75.5 -42q33 0 62.5 18.5t42.5 37.5z" />
    <glyph glyph-name="Cacute" unicode="&#x106;" horiz-adv-x="648" 
d="M61 301q0 170 109 289.5t270 119.5q118 0 205 -93q5 -5 4.5 -14t-7.5 -14l-29 -23q-12 -10 -26 5q-61 67 -157 67q-114 0 -200.5 -98.5t-86.5 -229.5q0 -102 58 -174.5t148 -72.5q53 0 92 19t82 59q13 13 22 3l31 -30q12 -12 -4 -27q-101 -97 -233 -97
q-113 0 -195.5 91.5t-82.5 219.5zM400 779q-17 -8 -22 8l-7 18q-4 12 8 19l148 84q4 4 13 2.5t12 -10.5l13 -33q6 -15 -8 -21z" />
    <glyph glyph-name="cacute" unicode="&#x107;" horiz-adv-x="468" 
d="M42 196q0 120 70.5 198t172.5 78q101 0 145 -76q8 -17 -8 -30l-21 -18q-16 -15 -29 6q-32 52 -88 52q-65 0 -114.5 -55.5t-49.5 -144.5q0 -62 30.5 -106.5t82.5 -44.5q62 0 109 70q12 20 30 7l24 -17q13 -9 1 -30q-23 -41 -69 -68.5t-104 -27.5q-78 0 -130 59t-52 148z
M257 557q-17 -8 -22 8l-7 18q-4 12 8 19l148 84q4 4 13 2.5t12 -10.5l13 -33q6 -15 -8 -21z" />
    <glyph glyph-name="Ccircumflex" unicode="&#x108;" horiz-adv-x="648" 
d="M61 301q0 170 109 289.5t270 119.5q118 0 205 -93q5 -5 4.5 -14t-7.5 -14l-29 -23q-12 -10 -26 5q-61 67 -157 67q-114 0 -200.5 -98.5t-86.5 -229.5q0 -102 58 -174.5t148 -72.5q53 0 92 19t82 59q13 13 22 3l31 -30q12 -12 -4 -27q-101 -97 -233 -97
q-113 0 -195.5 91.5t-82.5 219.5zM367 771q-15 -11 -22 3l-9 18q-8 16 5 24l119 94q9 7 18 7h3q9 0 19 -12l84 -91q8 -9 -2 -19l-14 -15q-12 -12 -21 -4l-78 66z" />
    <glyph glyph-name="ccircumflex" unicode="&#x109;" horiz-adv-x="468" 
d="M42 196q0 120 70.5 198t172.5 78q101 0 145 -76q8 -17 -8 -30l-21 -18q-16 -15 -29 6q-32 52 -88 52q-65 0 -114.5 -55.5t-49.5 -144.5q0 -62 30.5 -106.5t82.5 -44.5q62 0 109 70q12 20 30 7l24 -17q13 -9 1 -30q-23 -41 -69 -68.5t-104 -27.5q-78 0 -130 59t-52 148z
M189 554l-9 18q-8 16 5 24l119 94q9 7 18 7h3q9 0 19 -12l84 -91q8 -9 -2 -19l-14 -15q-12 -12 -21 -4l-78 66l-102 -71q-15 -11 -22 3z" />
    <glyph glyph-name="Cdotaccent" unicode="&#x10a;" horiz-adv-x="648" 
d="M61 301q0 170 109 289.5t270 119.5q118 0 205 -93q5 -5 4.5 -14t-7.5 -14l-29 -23q-12 -10 -26 5q-61 67 -157 67q-114 0 -200.5 -98.5t-86.5 -229.5q0 -102 58 -174.5t148 -72.5q53 0 92 19t82 59q13 13 22 3l31 -30q12 -12 -4 -27q-101 -97 -233 -97
q-113 0 -195.5 91.5t-82.5 219.5zM464 797q-21 0 -35 13.5t-14 33.5q0 26 19.5 44.5t44.5 18.5q20 0 33.5 -13.5t13.5 -33.5q0 -25 -18.5 -44t-43.5 -19z" />
    <glyph glyph-name="cdotaccent" unicode="&#x10b;" horiz-adv-x="468" 
d="M42 196q0 120 70.5 198t172.5 78q101 0 145 -76q8 -17 -8 -30l-21 -18q-16 -15 -29 6q-32 52 -88 52q-65 0 -114.5 -55.5t-49.5 -144.5q0 -62 30.5 -106.5t82.5 -44.5q62 0 109 70q12 20 30 7l24 -17q13 -9 1 -30q-23 -41 -69 -68.5t-104 -27.5q-78 0 -130 59t-52 148z
M301 581q-21 0 -35 13.5t-14 33.5q0 26 19.5 44.5t44.5 18.5q20 0 33.5 -13.5t13.5 -33.5q0 -25 -18.5 -44t-43.5 -19z" />
    <glyph glyph-name="Ccaron" unicode="&#x10c;" horiz-adv-x="648" 
d="M61 301q0 170 109 289.5t270 119.5q118 0 205 -93q5 -5 4.5 -14t-7.5 -14l-29 -23q-12 -10 -26 5q-61 67 -157 67q-114 0 -200.5 -98.5t-86.5 -229.5q0 -102 58 -174.5t148 -72.5q53 0 92 19t82 59q13 13 22 3l31 -30q12 -12 -4 -27q-101 -97 -233 -97
q-113 0 -195.5 91.5t-82.5 219.5zM455 764q-9 0 -19 12l-84 91q-8 9 2 19l14 15q12 12 21 4l78 -66l102 71q15 11 22 -3l9 -18q8 -15 -5 -24l-119 -94q-9 -7 -18 -7h-3z" />
    <glyph glyph-name="ccaron" unicode="&#x10d;" horiz-adv-x="468" 
d="M42 196q0 120 70.5 198t172.5 78q101 0 145 -76q8 -17 -8 -30l-21 -18q-16 -15 -29 6q-32 52 -88 52q-65 0 -114.5 -55.5t-49.5 -144.5q0 -62 30.5 -106.5t82.5 -44.5q62 0 109 70q12 20 30 7l24 -17q13 -9 1 -30q-23 -41 -69 -68.5t-104 -27.5q-78 0 -130 59t-52 148z
M300 544q-9 0 -19 12l-84 91q-8 9 2 19l14 15q12 12 21 4l78 -66l102 71q15 11 22 -3l9 -18q8 -15 -5 -24l-119 -94q-9 -7 -18 -7h-3z" />
    <glyph glyph-name="Dcaron" unicode="&#x10e;" horiz-adv-x="687" 
d="M58 19l93 662q1 7 6.5 13t12.5 6h203q115 0 193 -91.5t78 -212.5q0 -164 -106.5 -280t-262.5 -116h-204q-7 0 -11 5.5t-2 13.5zM141 69h131q122 0 206 90t84 235q0 105 -58 171.5t-152 66.5h-132zM359 764q-9 0 -19 12l-84 91q-8 9 2 19l14 15q12 12 21 4l78 -66l102 71
q15 11 22 -3l9 -18q8 -15 -5 -24l-119 -94q-9 -7 -18 -7h-3z" />
    <glyph glyph-name="dcaron" unicode="&#x10f;" horiz-adv-x="521" 
d="M199 -11q-68 0 -112.5 59.5t-44.5 144.5q0 117 67.5 198t168.5 81q18 0 35 -3t29 -7t21.5 -8.5t14.5 -7.5t6 -3l33 235q4 22 22 22h35q8 0 13.5 -6.5t4.5 -15.5l-92 -661q-3 -17 -21 -17h-23q-13 0 -15 17l-4 29l-7 -6q-7 -6 -19 -14.5t-28 -16.5t-38.5 -14t-45.5 -6z
M219 55q30 0 60.5 19.5t46.5 39.5l15 20l32 243q-37 29 -96 29q-65 0 -112 -61t-47 -144q0 -60 26.5 -103t74.5 -43zM546 656q0 24 18 39t43 15q27 0 42.5 -17t15.5 -49q0 -75 -63 -131q-7 -6 -15 0l-14 12q-9 8 2 17q39 37 39 75q0 7 -2 12q-7 -7 -27 -7q-18 0 -28.5 9.5
t-10.5 24.5z" />
    <glyph glyph-name="Dcroat" unicode="&#x110;" horiz-adv-x="689" 
d="M59 19l43 305h-27q-15 0 -13 19l1 7q1 8 6.5 13.5t12.5 5.5h26l44 312q1 7 6.5 13t12.5 6h203q116 0 193.5 -90t77.5 -214q0 -163 -108 -279.5t-261 -116.5h-204q-7 0 -11 5.5t-2 13.5zM142 69h129q121 0 205.5 93t84.5 232q0 105 -58 171.5t-152 66.5h-130l-37 -263h183
q7 0 11.5 -5.5t2.5 -13.5l-1 -8q-2 -18 -19 -18h-184z" />
    <glyph glyph-name="dcroat" unicode="&#x111;" horiz-adv-x="516" 
d="M199 -11q-68 0 -112.5 59.5t-44.5 144.5q0 117 67.5 198t168.5 81q18 0 35 -3t29 -7t21.5 -8.5t14.5 -7.5t6 -3l13 93h-131q-17 0 -15 18l1 8q1 8 7 13.5t13 5.5h131l14 97q1 9 8.5 15.5t15.5 6.5h33q8 0 13.5 -6.5t4.5 -15.5l-14 -97h27q7 0 11 -5.5t3 -13.5l-1 -7
q-3 -19 -19 -19h-27l-72 -519q-3 -17 -21 -17h-23q-13 0 -15 17l-4 29l-7 -6q-7 -6 -19 -14.5t-28 -16.5t-38.5 -14t-45.5 -6zM219 55q30 0 60.5 19.5t46.5 39.5l15 20l32 243q-37 29 -96 29q-65 0 -112 -61t-47 -144q0 -60 26.5 -103t74.5 -43z" />
    <glyph glyph-name="Emacron" unicode="&#x112;" horiz-adv-x="534" 
d="M58 19l93 662q1 7 6.5 13t12.5 6h357q7 0 11.5 -5.5t2.5 -13.5l-4 -29q-1 -8 -7 -13.5t-13 -5.5h-296l-35 -244h253q7 0 11 -6t3 -13l-4 -29q-1 -8 -6.5 -13.5t-12.5 -5.5h-253l-36 -255h297q7 0 11.5 -5.5t2.5 -13.5l-4 -29q-1 -8 -7 -13.5t-13 -5.5h-356
q-7 0 -11.5 5.5t-2.5 13.5zM242 821q-16 0 -14 18l3 21q2 19 20 19h230q17 0 14 -19l-2 -21q-4 -18 -20 -18h-231z" />
    <glyph glyph-name="emacron" unicode="&#x113;" horiz-adv-x="462" 
d="M42 193q0 115 67.5 197t173.5 82q61 0 100.5 -33.5t39.5 -86.5q0 -68 -66 -109t-184 -41q-29 0 -64 3q-5 -60 26.5 -105t87.5 -45q45 0 101 41q17 12 29 -6l13 -20q10 -15 -7 -28q-67 -53 -143 -53q-78 0 -126 59t-48 145zM118 265q33 -3 63 -3q81 0 125 22.5t44 63.5
q0 24 -19.5 41.5t-52.5 17.5q-56 0 -102.5 -43t-57.5 -99zM192 583q-17 0 -15 18l3 21q3 19 20 19h231q7 0 11 -5.5t3 -13.5l-3 -21q-2 -18 -20 -18h-230z" />
    <glyph glyph-name="Ebreve" unicode="&#x114;" horiz-adv-x="534" 
d="M58 19l93 662q1 7 6.5 13t12.5 6h357q7 0 11.5 -5.5t2.5 -13.5l-4 -29q-1 -8 -7 -13.5t-13 -5.5h-296l-35 -244h253q7 0 11 -6t3 -13l-4 -29q-1 -8 -6.5 -13.5t-12.5 -5.5h-253l-36 -255h297q7 0 11.5 -5.5t2.5 -13.5l-4 -29q-1 -8 -7 -13.5t-13 -5.5h-356
q-7 0 -11.5 5.5t-2.5 13.5zM360 771q-44 0 -75.5 33t-30.5 81q0 20 16 20h19q13 0 15 -17q10 -64 62 -64q23 0 44.5 18.5t33.5 45.5q8 17 19 17h25q17 0 10 -20q-15 -50 -51.5 -82t-86.5 -32z" />
    <glyph glyph-name="ebreve" unicode="&#x115;" horiz-adv-x="462" 
d="M42 193q0 115 67.5 197t173.5 82q61 0 100.5 -33.5t39.5 -86.5q0 -68 -66 -109t-184 -41q-29 0 -64 3q-5 -60 26.5 -105t87.5 -45q45 0 101 41q17 12 29 -6l13 -20q10 -15 -7 -28q-67 -53 -143 -53q-78 0 -126 59t-48 145zM118 265q33 -3 63 -3q81 0 125 22.5t44 63.5
q0 24 -19.5 41.5t-52.5 17.5q-56 0 -102.5 -43t-57.5 -99zM305 531q-44 0 -75.5 33t-30.5 81q0 20 16 20h19q13 0 15 -17q10 -64 62 -64q23 0 44.5 18.5t33.5 45.5q8 17 19 17h25q17 0 10 -20q-15 -50 -51.5 -82t-86.5 -32z" />
    <glyph glyph-name="Edotaccent" unicode="&#x116;" horiz-adv-x="534" 
d="M58 19l93 662q1 7 6.5 13t12.5 6h357q7 0 11.5 -5.5t2.5 -13.5l-4 -29q-1 -8 -7 -13.5t-13 -5.5h-296l-35 -244h253q7 0 11 -6t3 -13l-4 -29q-1 -8 -6.5 -13.5t-12.5 -5.5h-253l-36 -255h297q7 0 11.5 -5.5t2.5 -13.5l-4 -29q-1 -8 -7 -13.5t-13 -5.5h-356
q-7 0 -11.5 5.5t-2.5 13.5zM363 797q-21 0 -35 13.5t-14 33.5q0 26 19.5 44.5t44.5 18.5q20 0 33.5 -13.5t13.5 -33.5q0 -25 -18.5 -44t-43.5 -19z" />
    <glyph glyph-name="edotaccent" unicode="&#x117;" horiz-adv-x="462" 
d="M42 193q0 115 67.5 197t173.5 82q61 0 100.5 -33.5t39.5 -86.5q0 -68 -66 -109t-184 -41q-29 0 -64 3q-5 -60 26.5 -105t87.5 -45q45 0 101 41q17 12 29 -6l13 -20q10 -15 -7 -28q-67 -53 -143 -53q-78 0 -126 59t-48 145zM118 265q33 -3 63 -3q81 0 125 22.5t44 63.5
q0 24 -19.5 41.5t-52.5 17.5q-56 0 -102.5 -43t-57.5 -99zM298 581q-21 0 -35 13.5t-14 33.5q0 26 19.5 44.5t44.5 18.5q20 0 33.5 -13.5t13.5 -33.5q0 -25 -18.5 -44t-43.5 -19z" />
    <glyph glyph-name="Eogonek" unicode="&#x118;" horiz-adv-x="534" 
d="M58 19l93 662q1 7 6.5 13t12.5 6h357q7 0 11.5 -5.5t2.5 -13.5l-4 -29q-1 -8 -7 -13.5t-13 -5.5h-296l-35 -244h253q7 0 11 -6t3 -13l-4 -29q-1 -8 -6.5 -13.5t-12.5 -5.5h-253l-36 -255h297q7 0 11.5 -5.5t2.5 -13.5l-4 -29q-1 -13 -16 -19q-123 -62 -123 -142
q0 -42 44 -42q28 0 67 26q6 5 11 3.5t4 -8.5l-4 -36q-2 -16 -15 -24q-39 -21 -83 -21q-42 0 -65.5 24t-23.5 61q0 89 113 159h-285q-7 0 -11.5 5.5t-2.5 13.5z" />
    <glyph glyph-name="eogonek" unicode="&#x119;" horiz-adv-x="462" 
d="M42 193q0 115 67.5 197t173.5 82q61 0 100.5 -33.5t39.5 -86.5q0 -68 -66 -109t-184 -41q-29 0 -64 3q-5 -60 26.5 -105t87.5 -45q45 0 101 41q17 12 29 -6l13 -20q10 -15 -7 -28q-29 -24 -73 -40q-126 -69 -126 -144q0 -42 44 -42q28 0 67 26q6 5 11 3.5t4 -8.5l-4 -36
q-2 -16 -15 -24q-39 -21 -83 -21q-42 0 -65.5 24t-23.5 61q0 85 98 150q-69 9 -110 66t-41 136zM118 265q33 -3 63 -3q81 0 125 22.5t44 63.5q0 25 -20.5 42t-56.5 17q-52 0 -98 -43.5t-57 -98.5z" />
    <glyph glyph-name="Ecaron" unicode="&#x11a;" horiz-adv-x="534" 
d="M58 19l93 662q1 7 6.5 13t12.5 6h357q7 0 11.5 -5.5t2.5 -13.5l-4 -29q-1 -8 -7 -13.5t-13 -5.5h-296l-35 -244h253q7 0 11 -6t3 -13l-4 -29q-1 -8 -6.5 -13.5t-12.5 -5.5h-253l-36 -255h297q7 0 11.5 -5.5t2.5 -13.5l-4 -29q-1 -8 -7 -13.5t-13 -5.5h-356
q-7 0 -11.5 5.5t-2.5 13.5zM350 764q-9 0 -19 12l-84 91q-8 9 2 19l14 15q12 12 21 4l78 -66l102 71q15 11 22 -3l9 -18q8 -15 -5 -24l-119 -94q-9 -7 -18 -7h-3z" />
    <glyph glyph-name="ecaron" unicode="&#x11b;" horiz-adv-x="462" 
d="M42 193q0 115 67.5 197t173.5 82q61 0 100.5 -33.5t39.5 -86.5q0 -68 -66 -109t-184 -41q-29 0 -64 3q-5 -60 26.5 -105t87.5 -45q45 0 101 41q17 12 29 -6l13 -20q10 -15 -7 -28q-67 -53 -143 -53q-78 0 -126 59t-48 145zM118 265q33 -3 63 -3q81 0 125 22.5t44 63.5
q0 24 -19.5 41.5t-52.5 17.5q-56 0 -102.5 -43t-57.5 -99zM290 544q-9 0 -19 12l-84 91q-8 9 2 19l14 15q12 12 21 4l78 -66l102 71q15 11 22 -3l9 -18q8 -15 -5 -24l-119 -94q-9 -7 -18 -7h-3z" />
    <glyph glyph-name="Gcircumflex" unicode="&#x11c;" horiz-adv-x="677" 
d="M61 301q0 170 109 289.5t270 119.5q119 0 206 -93q5 -5 4.5 -14t-7.5 -14l-35 -29q-12 -10 -26 5q-27 31 -67.5 52t-82.5 21q-114 0 -200.5 -97t-86.5 -228q0 -103 57.5 -176t147.5 -73q25 0 50.5 4.5t44 10.5t33 12t22.5 11l9 4l20 143h-99q-7 0 -11.5 5t-2.5 13l5 34
q2 19 20 19h158q6 0 10.5 -5t3.5 -12l-32 -233q-2 -12 -10 -16q-11 -7 -31.5 -17.5t-81.5 -28.5t-119 -18q-115 0 -196.5 91t-81.5 220zM366 771q-15 -11 -22 3l-9 18q-8 16 5 24l119 94q9 7 18 7h3q9 0 19 -12l84 -91q8 -9 -2 -19l-14 -15q-12 -12 -21 -4l-78 66z" />
    <glyph glyph-name="gcircumflex" unicode="&#x11d;" horiz-adv-x="511" 
d="M40 174q0 134 70.5 216t161.5 82q36 0 64 -15t38 -29l10 -15l14 38q5 11 17 11h24q17 0 14 -22l-59 -415q-18 -128 -73 -186t-133 -58q-92 0 -156 83q-11 14 1 26l21 21q14 14 26 0l24 -27t34.5 -22.5t57.5 -13.5q46 0 80.5 40.5t45.5 131.5l4 32h-5q-53 -63 -130 -63
q-62 0 -106.5 51t-44.5 134zM205 55q46 0 87 43t51 81l22 154q-1 3 -3 8t-10 17.5t-18 22t-28 17.5t-38 8q-56 0 -106 -63t-50 -161q0 -56 28 -91.5t65 -35.5zM179 554l-9 18q-8 16 5 24l119 94q9 7 18 7h3q9 0 19 -12l84 -91q8 -9 -2 -19l-14 -15q-12 -12 -21 -4l-78 66
l-102 -71q-15 -11 -22 3z" />
    <glyph glyph-name="Gbreve" unicode="&#x11e;" horiz-adv-x="677" 
d="M61 301q0 170 109 289.5t270 119.5q119 0 206 -93q5 -5 4.5 -14t-7.5 -14l-35 -29q-12 -10 -26 5q-27 31 -67.5 52t-82.5 21q-114 0 -200.5 -97t-86.5 -228q0 -103 57.5 -176t147.5 -73q25 0 50.5 4.5t44 10.5t33 12t22.5 11l9 4l20 143h-99q-7 0 -11.5 5t-2.5 13l5 34
q2 19 20 19h158q6 0 10.5 -5t3.5 -12l-32 -233q-2 -12 -10 -16q-11 -7 -31.5 -17.5t-81.5 -28.5t-119 -18q-115 0 -196.5 91t-81.5 220zM464 771q-44 0 -75.5 33t-30.5 81q0 20 16 20h19q13 0 15 -17q10 -64 62 -64q23 0 44.5 18.5t33.5 45.5q8 17 19 17h25q17 0 10 -20
q-15 -50 -51.5 -82t-86.5 -32z" />
    <glyph glyph-name="gbreve" unicode="&#x11f;" horiz-adv-x="511" 
d="M40 174q0 134 70.5 216t161.5 82q36 0 64 -15t38 -29l10 -15l14 38q5 11 17 11h24q17 0 14 -22l-59 -415q-18 -128 -73 -186t-133 -58q-92 0 -156 83q-11 14 1 26l21 21q14 14 26 0l24 -27t34.5 -22.5t57.5 -13.5q46 0 80.5 40.5t45.5 131.5l4 32h-5q-53 -63 -130 -63
q-62 0 -106.5 51t-44.5 134zM205 55q46 0 87 43t51 81l22 154q-1 3 -3 8t-10 17.5t-18 22t-28 17.5t-38 8q-56 0 -106 -63t-50 -161q0 -56 28 -91.5t65 -35.5zM295 531q-44 0 -75.5 33t-30.5 81q0 20 16 20h19q13 0 15 -17q10 -64 62 -64q23 0 44.5 18.5t33.5 45.5
q8 17 19 17h25q17 0 10 -20q-15 -50 -51.5 -82t-86.5 -32z" />
    <glyph glyph-name="Gdotaccent" unicode="&#x120;" horiz-adv-x="677" 
d="M61 301q0 170 109 289.5t270 119.5q119 0 206 -93q5 -5 4.5 -14t-7.5 -14l-35 -29q-12 -10 -26 5q-27 31 -67.5 52t-82.5 21q-114 0 -200.5 -97t-86.5 -228q0 -103 57.5 -176t147.5 -73q25 0 50.5 4.5t44 10.5t33 12t22.5 11l9 4l20 143h-99q-7 0 -11.5 5t-2.5 13l5 34
q2 19 20 19h158q6 0 10.5 -5t3.5 -12l-32 -233q-2 -12 -10 -16q-11 -7 -31.5 -17.5t-81.5 -28.5t-119 -18q-115 0 -196.5 91t-81.5 220zM463 797q-21 0 -35 13.5t-14 33.5q0 26 19.5 44.5t44.5 18.5q20 0 33.5 -13.5t13.5 -33.5q0 -25 -18.5 -44t-43.5 -19z" />
    <glyph glyph-name="gdotaccent" unicode="&#x121;" horiz-adv-x="511" 
d="M40 174q0 134 70.5 216t161.5 82q36 0 64 -15t38 -29l10 -15l14 38q5 11 17 11h24q17 0 14 -22l-59 -415q-18 -128 -73 -186t-133 -58q-92 0 -156 83q-11 14 1 26l21 21q14 14 26 0l24 -27t34.5 -22.5t57.5 -13.5q46 0 80.5 40.5t45.5 131.5l4 32h-5q-53 -63 -130 -63
q-62 0 -106.5 51t-44.5 134zM205 55q46 0 87 43t51 81l22 154q-1 3 -3 8t-10 17.5t-18 22t-28 17.5t-38 8q-56 0 -106 -63t-50 -161q0 -56 28 -91.5t65 -35.5zM298 581q-21 0 -35 13.5t-14 33.5q0 26 19.5 44.5t44.5 18.5q20 0 33.5 -13.5t13.5 -33.5q0 -25 -18.5 -44
t-43.5 -19z" />
    <glyph glyph-name="Gcommaaccent" unicode="&#x122;" horiz-adv-x="677" 
d="M61 301q0 170 109 289.5t270 119.5q119 0 206 -93q5 -5 4.5 -14t-7.5 -14l-35 -29q-12 -10 -26 5q-27 31 -67.5 52t-82.5 21q-114 0 -200.5 -97t-86.5 -228q0 -103 57.5 -176t147.5 -73q25 0 50.5 4.5t44 10.5t33 12t22.5 11l9 4l20 143h-99q-7 0 -11.5 5t-2.5 13l5 34
q2 19 20 19h158q6 0 10.5 -5t3.5 -12l-32 -233q-2 -12 -10 -16q-11 -7 -31.5 -17.5t-81.5 -28.5t-119 -18q-115 0 -196.5 91t-81.5 220zM280 -125q0 24 18 39t43 15q27 0 42.5 -17t15.5 -49q0 -75 -63 -131q-7 -6 -15 0l-14 12q-9 8 2 17q39 37 39 75q0 7 -2 12
q-7 -7 -27 -7q-18 0 -28.5 9.5t-10.5 24.5z" />
    <glyph glyph-name="gcommaaccent" unicode="&#x123;" horiz-adv-x="511" 
d="M40 174q0 134 70.5 216t161.5 82q36 0 64 -15t38 -29l10 -15l14 38q5 11 17 11h24q17 0 14 -22l-59 -415q-18 -128 -73 -186t-133 -58q-92 0 -156 83q-11 14 1 26l21 21q14 14 26 0l24 -27t34.5 -22.5t57.5 -13.5q46 0 80.5 40.5t45.5 131.5l4 32h-5q-53 -63 -130 -63
q-62 0 -106.5 51t-44.5 134zM205 55q46 0 87 43t51 81l22 154q-1 3 -3 8t-10 17.5t-18 22t-28 17.5t-38 8q-56 0 -106 -63t-50 -161q0 -56 28 -91.5t65 -35.5zM366 606q0 -24 -18 -39t-43 -15q-27 0 -42.5 17t-15.5 49q0 75 63 131q7 6 15 0l14 -12q9 -8 -2 -17
q-39 -37 -39 -75q0 -7 2 -12q7 7 27 7q18 0 28.5 -9.5t10.5 -24.5z" />
    <glyph glyph-name="Hcircumflex" unicode="&#x124;" horiz-adv-x="698" 
d="M58 19l93 662q4 19 20 19h43q7 0 11.5 -5.5t3.5 -13.5l-42 -292h354l41 292q4 19 20 19h43q7 0 11 -6t3 -13l-93 -662q-1 -7 -6.5 -13t-12.5 -6h-43q-7 0 -11.5 5.5t-3.5 13.5l43 303h-354l-43 -303q-1 -8 -6.5 -13.5t-12.5 -5.5h-43q-7 0 -11.5 5.5t-3.5 13.5zM328 771
q-15 -11 -22 3l-9 18q-8 16 5 24l119 94q9 7 18 7h3q9 0 19 -12l84 -91q8 -9 -2 -19l-14 -15q-12 -12 -21 -4l-78 66z" />
    <glyph glyph-name="hcircumflex" unicode="&#x125;" horiz-adv-x="508" 
d="M59 0q-8 0 -13 6.5t-4 15.5l93 656q1 9 7 15.5t14 6.5h36q8 0 13 -6.5t4 -15.5l-38 -263l6 5q6 6 9.5 8.5t12.5 9t16 10.5t18 9t21.5 8t24.5 5t28 2q153 0 125 -197l-36 -253q-1 -9 -8 -15.5t-15 -6.5h-35q-8 0 -13 6.5t-4 15.5l37 254q19 130 -67 130q-21 0 -41.5 -7
t-35.5 -16.5t-27 -19.5t-19 -17l-6 -7l-46 -317q-1 -9 -8 -15.5t-16 -6.5h-33zM60 771l-9 18q-8 15 5 24l119 94q9 7 18 7h3q9 0 19 -12l84 -91q8 -9 -2 -19l-14 -15q-12 -12 -21 -4l-78 66l-102 -71q-15 -11 -22 3z" />
    <glyph glyph-name="Hbar" unicode="&#x126;" horiz-adv-x="698" 
d="M58 19l73 517h-20q-18 0 -14 19l2 12q3 14 18 14h20l14 100q4 19 20 19h43q7 0 11.5 -5.5t3.5 -13.5l-15 -100h354l14 100q4 19 20 19h43q7 0 11 -6t3 -13l-14 -100h20q16 0 14 -16l-1 -12q-2 -17 -19 -17h-20l-73 -517q-1 -7 -6.5 -13t-12.5 -6h-43q-7 0 -11.5 5.5
t-3.5 13.5l43 303h-354l-43 -303q-1 -8 -6.5 -13.5t-12.5 -5.5h-43q-7 0 -11.5 5.5t-3.5 13.5zM187 389h354l21 147h-354z" />
    <glyph glyph-name="hbar" unicode="&#x127;" horiz-adv-x="527" 
d="M58 0q-8 0 -13 6.5t-4 15.5l73 514h-27q-7 0 -11 5.5t-3 13.5l1 7q1 7 6.5 13t12.5 6h27l14 97q1 9 7 15.5t14 6.5h36q8 0 13 -6.5t4 -15.5l-14 -97h132q7 0 11.5 -5.5t3.5 -13.5l-1 -8q-2 -18 -20 -18h-133l-17 -121q67 57 146 57q77 0 113 -49t22 -148l-36 -253
q-1 -9 -8 -15.5t-15 -6.5h-35q-8 0 -13 6.5t-4 15.5l37 254q9 64 -12 97t-65 33q-21 0 -42.5 -7t-38 -16.5t-29.5 -19.5t-21 -17l-8 -7l-46 -317q-1 -9 -8 -15.5t-16 -6.5h-33z" />
    <glyph glyph-name="Itilde" unicode="&#x128;" horiz-adv-x="267" 
d="M58 19l93 662q1 7 6.5 13t12.5 6h44q7 0 11 -6t3 -13l-93 -662q-1 -8 -6.5 -13.5t-12.5 -5.5h-44q-7 0 -11 6t-3 13zM95 795l-16 8q-11 7 -4 23q6 15 15 31t32 34.5t50 18.5q18 0 32 -11t21.5 -25t17 -25t18.5 -11q25 0 42 47q8 21 25 11l14 -8q13 -8 7 -23
q-9 -29 -34 -57t-62 -28q-15 0 -29 11.5t-23 25t-18.5 25t-17.5 11.5q-12 0 -22.5 -10.5t-14 -17.5t-9.5 -22q-3 -7 -10 -9.5t-14 1.5z" />
    <glyph glyph-name="itilde" unicode="&#x129;" horiz-adv-x="231" 
d="M59 0q-8 0 -13 6.5t-4 15.5l58 418q1 9 7.5 15.5t15.5 6.5h36q7 0 12 -7t3 -15l-58 -418q-1 -9 -8.5 -15.5t-15.5 -6.5h-33zM41 575l-16 8q-11 7 -4 23q6 15 15 31t31.5 34.5t48.5 18.5q23 0 39 -18t27.5 -36t24.5 -18q25 0 42 47q8 21 25 11l14 -8q13 -8 7 -23
q-9 -28 -33 -56.5t-60 -28.5q-16 0 -30.5 11.5t-22.5 25t-18.5 25t-19.5 11.5q-12 0 -22.5 -10.5t-14 -17.5t-9.5 -22q-3 -7 -10 -9.5t-14 1.5z" />
    <glyph glyph-name="Imacron" unicode="&#x12a;" horiz-adv-x="267" 
d="M58 19l93 662q1 7 6.5 13t12.5 6h44q7 0 11 -6t3 -13l-93 -662q-1 -8 -6.5 -13.5t-12.5 -5.5h-44q-7 0 -11 6t-3 13zM92 821q-16 0 -14 18l3 21q2 19 20 19h230q17 0 14 -19l-2 -21q-4 -18 -20 -18h-231z" />
    <glyph glyph-name="imacron" unicode="&#x12b;" horiz-adv-x="231" 
d="M59 0q-8 0 -13 6.5t-4 15.5l58 418q1 9 7.5 15.5t15.5 6.5h36q7 0 12 -7t3 -15l-58 -418q-1 -9 -8.5 -15.5t-15.5 -6.5h-33zM36 583q-17 0 -15 18l3 21q3 19 20 19h231q7 0 11 -5.5t3 -13.5l-3 -21q-2 -18 -20 -18h-230z" />
    <glyph glyph-name="Ibreve" unicode="&#x12c;" horiz-adv-x="267" 
d="M58 19l93 662q1 7 6.5 13t12.5 6h44q7 0 11 -6t3 -13l-93 -662q-1 -8 -6.5 -13.5t-12.5 -5.5h-44q-7 0 -11 6t-3 13zM203 771q-44 0 -75.5 33t-30.5 81q0 20 16 20h19q13 0 15 -17q10 -64 62 -64q23 0 44.5 18.5t33.5 45.5q8 17 19 17h25q17 0 10 -20q-15 -50 -51.5 -82
t-86.5 -32z" />
    <glyph glyph-name="ibreve" unicode="&#x12d;" horiz-adv-x="231" 
d="M60 0q-8 0 -13 6.5t-4 15.5l58 418q1 9 7.5 15.5t15.5 6.5h36q7 0 12 -7t3 -15l-58 -418q-1 -9 -8.5 -15.5t-15.5 -6.5h-33zM147 531q-44 0 -75.5 33t-30.5 81q0 20 16 20h19q13 0 15 -17q10 -64 62 -64q23 0 44.5 18.5t33.5 45.5q8 17 19 17h25q17 0 10 -20
q-15 -50 -51.5 -82t-86.5 -32z" />
    <glyph glyph-name="Iogonek" unicode="&#x12e;" horiz-adv-x="267" 
d="M58 19l93 662q1 7 6.5 13t12.5 6h44q7 0 11 -6t3 -13l-93 -662q-1 -11 -14 -18q-124 -68 -124 -143q0 -42 44 -42q28 0 67 26q6 5 11 3.5t4 -8.5l-4 -36q-2 -16 -15 -24q-39 -21 -83 -21q-42 0 -65.5 24t-23.5 61q0 55 34 94t93 73q-3 4 -1 11z" />
    <glyph glyph-name="iogonek" unicode="&#x12f;" horiz-adv-x="232" 
d="M42 13l58 427q1 9 7.5 15.5t15.5 6.5h36q7 0 12 -7t3 -15l-57 -416q-3 -16 -20 -24q-119 -66 -119 -142q0 -42 44 -42q28 0 67 26q6 5 11 3.5t4 -8.5l-4 -36q-2 -16 -15 -24q-39 -21 -83 -21q-42 0 -65.5 24t-23.5 61q0 97 129 172zM156 581q-21 0 -35 13.5t-14 33.5
q0 26 19.5 44.5t44.5 18.5q20 0 33.5 -13.5t13.5 -33.5q0 -25 -18.5 -44t-43.5 -19z" />
    <glyph glyph-name="Idotaccent" unicode="&#x130;" horiz-adv-x="267" 
d="M58 19l93 662q1 7 6.5 13t12.5 6h44q7 0 11 -6t3 -13l-93 -662q-1 -8 -6.5 -13.5t-12.5 -5.5h-44q-7 0 -11 6t-3 13zM205 797q-21 0 -35 13.5t-14 33.5q0 26 19.5 44.5t44.5 18.5q20 0 33.5 -13.5t13.5 -33.5q0 -25 -18.5 -44t-43.5 -19z" />
    <glyph glyph-name="dotlessi" unicode="&#x131;" horiz-adv-x="231" 
d="M59 0q-8 0 -13 6.5t-4 15.5l58 418q1 9 7.5 15.5t15.5 6.5h36q7 0 12 -7t3 -15l-58 -418q-1 -9 -8.5 -15.5t-15.5 -6.5h-33z" />
    <glyph glyph-name="IJ" unicode="&#x132;" horiz-adv-x="667" 
d="M58 19l93 662q1 7 6.5 13t12.5 6h44q7 0 11 -6t3 -13l-93 -662q-1 -8 -6.5 -13.5t-12.5 -5.5h-44q-7 0 -11 6t-3 13zM228 62q-9 16 4 27l22 20q16 13 31 -6q37 -45 85 -45q40 0 73 32t43 105l69 486q1 8 7 13.5t13 5.5h43q7 0 11.5 -5.5t2.5 -13.5l-68 -484
q-29 -207 -199 -207q-50 0 -85.5 23.5t-51.5 48.5z" />
    <glyph glyph-name="ij" unicode="&#x133;" horiz-adv-x="435" 
d="M59 0q-8 0 -13 6.5t-4 15.5l58 418q1 9 7.5 15.5t15.5 6.5h36q7 0 12 -7t3 -15l-58 -418q-1 -9 -8.5 -15.5t-15.5 -6.5h-33zM157 581q-21 0 -35 13.5t-14 33.5q0 26 19.5 44.5t44.5 18.5q20 0 33.5 -13.5t13.5 -33.5q0 -25 -18.5 -44t-43.5 -19zM361 581q-21 0 -35 13.5
t-14 33.5q0 26 19.5 44.5t44.5 18.5q20 0 33.5 -13.5t13.5 -33.5q0 -25 -18.5 -44t-43.5 -19zM378 440l-69 -490q-25 -170 -158 -198q-16 -3 -19 12l-7 32q-4 20 18 27q40 14 61.5 39t29.5 81l70 497q1 10 8.5 16t16.5 6h30q9 0 14.5 -6.5t4.5 -15.5z" />
    <glyph glyph-name="Jcircumflex" unicode="&#x134;" horiz-adv-x="435" 
d="M-4 62q-9 16 4 27l22 20q16 13 31 -6q37 -45 85 -45q40 0 73 32t43 105l69 486q1 8 7 13.5t13 5.5h43q7 0 11.5 -5.5t2.5 -13.5l-68 -484q-29 -207 -199 -207q-50 0 -85.5 23.5t-51.5 48.5zM280 771q-15 -11 -22 3l-9 18q-8 16 5 24l119 94q9 7 18 7h3q9 0 19 -12l84 -91
q8 -9 -2 -19l-14 -15q-12 -12 -21 -4l-78 66z" />
    <glyph glyph-name="jcircumflex" unicode="&#x135;" horiz-adv-x="232" 
d="M175 440l-69 -490q-25 -170 -158 -198q-16 -3 -19 12l-7 32q-4 20 18 27q40 14 61.5 39t29.5 81l70 497q1 10 8.5 16t16.5 6h30q9 0 14.5 -6.5t4.5 -15.5zM33 554l-9 18q-8 16 5 24l119 94q9 7 18 7h3q9 0 19 -12l84 -91q8 -9 -2 -19l-14 -15q-12 -12 -21 -4l-78 66
l-102 -71q-15 -11 -22 3z" />
    <glyph glyph-name="Kcommaaccent" unicode="&#x136;" horiz-adv-x="557" 
d="M58 24l92 652q4 24 25 24h34q9 0 14.5 -7t4.5 -17l-41 -285l315 299q8 10 18 10h52q13 0 17.5 -10.5t-6.5 -21.5l-327 -308l238 -334q6 -5 1.5 -15.5t-18.5 -10.5h-48q-13 0 -15 7l-234 333l-44 -316q-2 -10 -9 -17t-16 -7h-34q-9 0 -14.5 7t-4.5 17zM183 -125
q0 24 18 39t43 15q27 0 42.5 -17t15.5 -49q0 -75 -63 -131q-7 -6 -15 0l-14 12q-9 8 2 17q39 37 39 75q0 7 -2 12q-7 -7 -27 -7q-18 0 -28.5 9.5t-10.5 24.5z" />
    <glyph glyph-name="kcommaaccent" unicode="&#x137;" horiz-adv-x="458" 
d="M59 0q-8 0 -13 6.5t-4 15.5l93 656q4 22 21 22h36q8 0 13 -6.5t4 -15.5l-53 -391l192 161q19 14 26 14h59q8 0 11 -5.5t1 -12t-7 -10.5l-217 -184l166 -221q6 -6 1.5 -17.5t-16.5 -11.5h-45q-12 0 -19 9l-159 223l-33 -210q-2 -9 -8 -15.5t-14 -6.5h-35zM136 -125
q0 24 18 39t43 15q27 0 42.5 -17t15.5 -49q0 -75 -63 -131q-7 -6 -15 0l-14 12q-9 8 2 17q39 37 39 75q0 7 -2 12q-7 -7 -27 -7q-18 0 -28.5 9.5t-10.5 24.5z" />
    <glyph glyph-name="kgreenlandic" unicode="&#x138;" horiz-adv-x="479" 
d="M42 22l59 418q2 8 9 15t14 7h41q7 0 11.5 -6.5t3.5 -15.5l-26 -188l206 196q13 14 26 14h58q8 0 11 -6t0.5 -12.5t-6.5 -9.5l-225 -207l192 -198q6 -6 1 -17.5t-17 -11.5h-51q-9 0 -18 9l-185 188l-24 -175q-1 -9 -8.5 -15.5t-15.5 -6.5h-39q-8 0 -13 6.5t-4 15.5z" />
    <glyph glyph-name="Lacute" unicode="&#x139;" horiz-adv-x="459" 
d="M58 19l93 662q4 19 20 19h43q7 0 11.5 -5.5t3.5 -13.5l-87 -614h255q7 0 11 -5.5t3 -13.5l-4 -29q-4 -19 -20 -19h-314q-7 0 -11.5 5.5t-3.5 13.5zM145 779q-17 -8 -22 8l-7 18q-4 12 8 19l148 84q4 4 13 2.5t12 -10.5l13 -33q6 -15 -8 -21z" />
    <glyph glyph-name="lacute" unicode="&#x13a;" horiz-adv-x="240" 
d="M63 0q-8 0 -13 6.5t-4 15.5l93 656q1 9 8 15.5t15 6.5h34q8 0 13 -6.5t4 -15.5l-93 -656q-2 -9 -8 -15.5t-14 -6.5h-35zM146 774q-17 -8 -22 8l-7 18q-4 12 8 19l148 84q4 4 13 2.5t12 -10.5l13 -33q6 -15 -8 -21z" />
    <glyph glyph-name="Lcommaaccent" unicode="&#x13b;" horiz-adv-x="459" 
d="M58 19l93 662q4 19 20 19h43q7 0 11.5 -5.5t3.5 -13.5l-87 -614h255q7 0 11 -5.5t3 -13.5l-4 -29q-4 -19 -20 -19h-314q-7 0 -11.5 5.5t-3.5 13.5zM162 -125q0 24 18 39t43 15q27 0 42.5 -17t15.5 -49q0 -75 -63 -131q-7 -6 -15 0l-14 12q-9 8 2 17q39 37 39 75
q0 7 -2 12q-7 -7 -27 -7q-18 0 -28.5 9.5t-10.5 24.5z" />
    <glyph glyph-name="lcommaaccent" unicode="&#x13c;" horiz-adv-x="240" 
d="M63 0q-8 0 -13 6.5t-4 15.5l93 656q1 9 8 15.5t15 6.5h34q8 0 13 -6.5t4 -15.5l-93 -656q-2 -9 -8 -15.5t-14 -6.5h-35zM6 -125q0 24 18 39t43 15q27 0 42.5 -17t15.5 -49q0 -75 -63 -131q-7 -6 -15 0l-14 12q-9 8 2 17q39 37 39 75q0 7 -2 12q-7 -7 -27 -7
q-18 0 -28.5 9.5t-10.5 24.5z" />
    <glyph glyph-name="Lcaron" unicode="&#x13d;" horiz-adv-x="469" 
d="M58 19l93 662q4 19 20 19h43q7 0 11.5 -5.5t3.5 -13.5l-87 -614h255q7 0 11 -5.5t3 -13.5l-4 -29q-4 -19 -20 -19h-314q-7 0 -11.5 5.5t-3.5 13.5zM360 656q0 24 18 39t43 15q27 0 42.5 -17t15.5 -49q0 -75 -63 -131q-7 -6 -15 0l-14 12q-9 8 2 17q39 37 39 75q0 7 -2 12
q-7 -7 -27 -7q-18 0 -28.5 9.5t-10.5 24.5z" />
    <glyph glyph-name="lcaron" unicode="&#x13e;" horiz-adv-x="240" 
d="M63 0q-8 0 -13 6.5t-4 15.5l93 656q1 9 8 15.5t15 6.5h34q8 0 13 -6.5t4 -15.5l-93 -656q-2 -9 -8 -15.5t-14 -6.5h-35zM266 656q0 24 18 39t43 15q27 0 42.5 -17t15.5 -49q0 -75 -63 -131q-7 -6 -15 0l-14 12q-9 8 2 17q39 37 39 75q0 7 -2 12q-7 -7 -27 -7
q-18 0 -28.5 9.5t-10.5 24.5z" />
    <glyph glyph-name="Ldot" unicode="&#x13f;" horiz-adv-x="505" 
d="M58 19l93 662q4 19 20 19h43q7 0 11.5 -5.5t3.5 -13.5l-87 -614h255q7 0 11 -5.5t3 -13.5l-4 -29q-4 -19 -20 -19h-314q-7 0 -11.5 5.5t-3.5 13.5zM428 292q-21 0 -35 14.5t-14 35.5q0 26 20 45t45 19q21 0 35 -14.5t14 -35.5q0 -26 -19.5 -45t-45.5 -19z" />
    <glyph glyph-name="ldot" unicode="&#x140;" horiz-adv-x="308" 
d="M63 0q-8 0 -13 6.5t-4 15.5l93 656q1 9 8 15.5t15 6.5h34q8 0 13 -6.5t4 -15.5l-93 -656q-2 -9 -8 -15.5t-14 -6.5h-35zM275 288q-21 0 -35 14.5t-14 35.5q0 26 20 45t45 19q21 0 35 -14.5t14 -35.5q0 -26 -19.5 -45t-45.5 -19z" />
    <glyph glyph-name="Lslash" unicode="&#x141;" horiz-adv-x="459" 
d="M57 19l41 292l-20 -12q-6 -4 -13 -2.5t-9 9.5l-3 10q-5 14 10 22l43 24l44 319q4 19 20 19h43q7 0 11.5 -5.5t3.5 -13.5l-39 -274l105 64q15 9 21 -4l5 -11q6 -13 -11 -24l-127 -76l-41 -289h255q7 0 11 -5.5t3 -13.5l-4 -29q-4 -19 -20 -19h-314q-7 0 -11.5 5.5
t-3.5 13.5z" />
    <glyph glyph-name="lslash" unicode="&#x142;" horiz-adv-x="276" 
d="M72 0q-8 0 -13 6.5t-4 15.5l42 297l-45 -26q-6 -4 -13 -2t-9 9l-3 8q-5 14 10 24l67 39l44 307q1 9 8 15.5t15 6.5h34q8 0 13 -6.5t4 -15.5l-37 -260l80 47q16 10 22 -5l3 -8q5 -16 -10 -26l-102 -60l-49 -344q-1 -9 -8 -15.5t-14 -6.5h-35z" />
    <glyph glyph-name="Nacute" unicode="&#x143;" horiz-adv-x="709" 
d="M58 19l94 673q2 18 22 18h15q9 0 15 -9l317 -552h1l75 532q1 8 7.5 13.5t15.5 5.5h32q8 0 13 -5.5t4 -13.5l-95 -673q-2 -18 -22 -18h-15q-9 0 -15 9l-318 562h-2l-73 -542q-1 -7 -8 -13t-15 -6h-32q-18 0 -16 19zM362 779q-17 -8 -22 8l-7 18q-4 12 8 19l148 84
q4 4 13 2.5t12 -10.5l13 -33q6 -15 -8 -21z" />
    <glyph glyph-name="nacute" unicode="&#x144;" horiz-adv-x="509" 
d="M59 0q-8 0 -13 6.5t-4 15.5l58 418q2 22 23 22h20q12 0 15 -14l5 -35l7 6q7 6 20 14.5t30 17.5t40 15t47 6q152 0 126 -196l-37 -254q-1 -9 -8 -15.5t-15 -6.5h-35q-8 0 -13 6.5t-4 15.5l37 254q19 130 -67 130q-21 0 -41.5 -7t-36 -16.5t-27 -19t-18.5 -16.5l-7 -7
l-45 -318q-1 -9 -8 -15.5t-17 -6.5h-32zM262 557q-17 -8 -22 8l-7 18q-4 12 8 19l148 84q4 4 13 2.5t12 -10.5l13 -33q6 -15 -8 -21z" />
    <glyph glyph-name="Ncommaaccent" unicode="&#x145;" horiz-adv-x="709" 
d="M58 19l94 673q2 18 22 18h15q9 0 15 -9l317 -552h1l75 532q1 8 7.5 13.5t15.5 5.5h32q8 0 13 -5.5t4 -13.5l-95 -673q-2 -18 -22 -18h-15q-9 0 -15 9l-318 562h-2l-73 -542q-1 -7 -8 -13t-15 -6h-32q-18 0 -16 19zM237 -125q0 24 18 39t43 15q27 0 42.5 -17t15.5 -49
q0 -75 -63 -131q-7 -6 -15 0l-14 12q-9 8 2 17q39 37 39 75q0 7 -2 12q-7 -7 -27 -7q-18 0 -28.5 9.5t-10.5 24.5z" />
    <glyph glyph-name="ncommaaccent" unicode="&#x146;" horiz-adv-x="509" 
d="M59 0q-8 0 -13 6.5t-4 15.5l58 418q2 22 23 22h20q12 0 15 -14l5 -35l7 6q7 6 20 14.5t30 17.5t40 15t47 6q152 0 126 -196l-37 -254q-1 -9 -8 -15.5t-15 -6.5h-35q-8 0 -13 6.5t-4 15.5l37 254q19 130 -67 130q-21 0 -41.5 -7t-36 -16.5t-27 -19t-18.5 -16.5l-7 -7
l-45 -318q-1 -9 -8 -15.5t-17 -6.5h-32zM152 -125q0 24 18 39t43 15q27 0 42.5 -17t15.5 -49q0 -75 -63 -131q-7 -6 -15 0l-14 12q-9 8 2 17q39 37 39 75q0 7 -2 12q-7 -7 -27 -7q-18 0 -28.5 9.5t-10.5 24.5z" />
    <glyph glyph-name="Ncaron" unicode="&#x147;" horiz-adv-x="709" 
d="M58 19l94 673q2 18 22 18h15q9 0 15 -9l317 -552h1l75 532q1 8 7.5 13.5t15.5 5.5h32q8 0 13 -5.5t4 -13.5l-95 -673q-2 -18 -22 -18h-15q-9 0 -15 9l-318 562h-2l-73 -542q-1 -7 -8 -13t-15 -6h-32q-18 0 -16 19zM413 764q-9 0 -19 12l-84 91q-8 9 2 19l14 15
q12 12 21 4l78 -66l102 71q15 11 22 -3l9 -18q8 -15 -5 -24l-119 -94q-9 -7 -18 -7h-3z" />
    <glyph glyph-name="ncaron" unicode="&#x148;" horiz-adv-x="509" 
d="M59 0q-8 0 -13 6.5t-4 15.5l58 418q2 22 23 22h20q12 0 15 -14l5 -35l7 6q7 6 20 14.5t30 17.5t40 15t47 6q152 0 126 -196l-37 -254q-1 -9 -8 -15.5t-15 -6.5h-35q-8 0 -13 6.5t-4 15.5l37 254q19 130 -67 130q-21 0 -41.5 -7t-36 -16.5t-27 -19t-18.5 -16.5l-7 -7
l-45 -318q-1 -9 -8 -15.5t-17 -6.5h-32zM288 544q-9 0 -19 12l-84 91q-8 9 2 19l14 15q12 12 21 4l78 -66l102 71q15 11 22 -3l9 -18q8 -15 -5 -24l-119 -94q-9 -7 -18 -7h-3z" />
    <glyph glyph-name="napostrophe" unicode="&#x149;" horiz-adv-x="509" 
d="M12 656q0 24 18 39t43 15q27 0 42.5 -17t15.5 -49q0 -75 -63 -131q-7 -6 -15 0l-14 12q-9 8 2 17q39 37 39 75q0 7 -2 12q-7 -7 -27 -7q-18 0 -28.5 9.5t-10.5 24.5zM59 0q-8 0 -13 6.5t-4 15.5l58 418q2 22 23 22h20q12 0 15 -14l5 -35l7 6q7 6 20 14.5t30 17.5t40 15
t47 6q152 0 126 -196l-37 -254q-1 -9 -8 -15.5t-15 -6.5h-35q-8 0 -13 6.5t-4 15.5l37 254q19 130 -67 130q-21 0 -41.5 -7t-36 -16.5t-27 -19t-18.5 -16.5l-7 -7l-45 -318q-1 -9 -8 -15.5t-17 -6.5h-32z" />
    <glyph glyph-name="Eng" unicode="&#x14a;" horiz-adv-x="710" 
d="M669 681l-101 -731q-23 -170 -158 -198q-16 -3 -19 12l-7 32q-4 20 18 27q40 14 61.5 39t29.5 81l12 83l-301 535h-2l-73 -542q-1 -7 -8 -13t-15 -6h-32q-18 0 -16 19l94 673q2 18 22 18h15q9 0 15 -9l317 -552h1l75 532q1 8 7.5 13.5t15.5 5.5h32q8 0 13 -5.5t4 -13.5z
" />
    <glyph glyph-name="eng" unicode="&#x14b;" horiz-adv-x="509" 
d="M59 0q-8 0 -13 6.5t-4 15.5l58 418q2 22 23 22h20q12 0 15 -14l5 -35l7 6q7 6 20 14.5t30 17.5t40 15t47 6q154 0 126 -196l-47 -326q-25 -170 -158 -198q-16 -3 -19 12l-7 32q-4 20 18 27q40 14 61.5 39t29.5 81l47 333q19 130 -67 130q-21 0 -41.5 -7t-36 -16.5
t-27 -19t-18.5 -16.5l-7 -7l-45 -318q-1 -9 -8 -15.5t-17 -6.5h-32z" />
    <glyph glyph-name="Omacron" unicode="&#x14c;" horiz-adv-x="761" 
d="M341 -10q-120 0 -201 88t-81 218q0 167 114 290.5t265 123.5q119 0 200.5 -88t81.5 -218q0 -169 -112.5 -291.5t-266.5 -122.5zM349 60q116 0 207.5 101t91.5 234q0 104 -61.5 174.5t-156.5 70.5q-116 0 -207.5 -102t-91.5 -234q0 -104 61.5 -174t156.5 -70zM345 821
q-16 0 -14 18l3 21q2 19 20 19h230q17 0 14 -19l-2 -21q-4 -18 -20 -18h-231z" />
    <glyph glyph-name="omacron" unicode="&#x14d;" horiz-adv-x="519" 
d="M41 198q0 112 70.5 193t171.5 81q73 0 126 -61t53 -146q0 -113 -71 -194.5t-172 -81.5q-73 0 -125.5 61.5t-52.5 147.5zM225 55q66 0 116 60.5t50 143.5q0 62 -32 104.5t-82 42.5q-66 0 -116 -59.5t-50 -142.5q0 -64 31.5 -106.5t82.5 -42.5zM192 583q-17 0 -15 18l3 21
q3 19 20 19h231q7 0 11 -5.5t3 -13.5l-3 -21q-2 -18 -20 -18h-230z" />
    <glyph glyph-name="Obreve" unicode="&#x14e;" horiz-adv-x="761" 
d="M341 -10q-120 0 -201 88t-81 218q0 167 114 290.5t265 123.5q119 0 200.5 -88t81.5 -218q0 -169 -112.5 -291.5t-266.5 -122.5zM349 60q116 0 207.5 101t91.5 234q0 104 -61.5 174.5t-156.5 70.5q-116 0 -207.5 -102t-91.5 -234q0 -104 61.5 -174t156.5 -70zM456 771
q-44 0 -75.5 33t-30.5 81q0 20 16 20h19q13 0 15 -17q10 -64 62 -64q23 0 44.5 18.5t33.5 45.5q8 17 19 17h25q17 0 10 -20q-15 -50 -51.5 -82t-86.5 -32z" />
    <glyph glyph-name="obreve" unicode="&#x14f;" horiz-adv-x="519" 
d="M41 198q0 112 70.5 193t171.5 81q73 0 126 -61t53 -146q0 -113 -71 -194.5t-172 -81.5q-73 0 -125.5 61.5t-52.5 147.5zM225 55q66 0 116 60.5t50 143.5q0 62 -32 104.5t-82 42.5q-66 0 -116 -59.5t-50 -142.5q0 -64 31.5 -106.5t82.5 -42.5zM297 531q-44 0 -75.5 33
t-30.5 81q0 20 16 20h19q13 0 15 -17q10 -64 62 -64q23 0 44.5 18.5t33.5 45.5q8 17 19 17h25q17 0 10 -20q-15 -50 -51.5 -82t-86.5 -32z" />
    <glyph glyph-name="Ohungarumlaut" unicode="&#x150;" horiz-adv-x="761" 
d="M341 -10q-120 0 -201 88t-81 218q0 167 114 290.5t265 123.5q119 0 200.5 -88t81.5 -218q0 -169 -112.5 -291.5t-266.5 -122.5zM349 60q116 0 207.5 101t91.5 234q0 104 -61.5 174.5t-156.5 70.5q-116 0 -207.5 -102t-91.5 -234q0 -104 61.5 -174t156.5 -70zM518 769
q-7 0 -11 6t-1 13l63 141q8 19 20 19h40q12 0 15.5 -7.5t-2.5 -17.5l-90 -139q-9 -15 -19 -15h-15zM369 769q-7 0 -11 6t-1 13l63 141q8 19 20 19h40q12 0 15.5 -7.5t-2.5 -17.5l-90 -139q-9 -15 -19 -15h-15z" />
    <glyph glyph-name="ohungarumlaut" unicode="&#x151;" horiz-adv-x="519" 
d="M41 198q0 112 70.5 193t171.5 81q73 0 126 -61t53 -146q0 -113 -71 -194.5t-172 -81.5q-73 0 -125.5 61.5t-52.5 147.5zM225 55q66 0 116 60.5t50 143.5q0 62 -32 104.5t-82 42.5q-66 0 -116 -59.5t-50 -142.5q0 -64 31.5 -106.5t82.5 -42.5zM367 521q-7 0 -11 6t-1 13
l63 141q8 19 20 19h40q12 0 15.5 -7.5t-2.5 -17.5l-90 -139q-9 -15 -19 -15h-15zM218 521q-7 0 -11 6t-1 13l63 141q8 19 20 19h40q12 0 15.5 -7.5t-2.5 -17.5l-90 -139q-9 -15 -19 -15h-15z" />
    <glyph glyph-name="OE" unicode="&#x152;" horiz-adv-x="880" 
d="M61 310q0 162 112 281t266 119q19 0 38.5 -2.5t29.5 -5.5l10 -2h356q16 0 14 -19l-4 -29q-1 -8 -6.5 -13.5t-12.5 -5.5h-297l-34 -244h252q7 0 11.5 -6t3.5 -13l-5 -29q-3 -19 -19 -19h-253l-36 -255h297q16 0 14 -19l-4 -29q-1 -7 -6.5 -13t-12.5 -6h-357
q-40 -10 -80 -10q-115 0 -196 92.5t-81 227.5zM133 310q0 -104 61 -177t154 -73q32 0 63 7l79 564q-32 8 -61 8q-116 0 -206 -98t-90 -231z" />
    <glyph glyph-name="oe" unicode="&#x153;" horiz-adv-x="799" 
d="M42 197q0 112 69.5 193.5t169.5 81.5q49 0 90.5 -26.5t62.5 -69.5q73 96 181 96q68 0 106.5 -34t38.5 -88q0 -71 -64 -111t-182 -40q-31 0 -67 3q-5 -59 26.5 -103t82.5 -44q8 0 16.5 1t15.5 3t14.5 5t13 5.5t12.5 7t10.5 7t10.5 6.5t9 6q24 14 34 -5l10 -18
q10 -17 -5 -31q-75 -53 -156 -53q-96 0 -143 98q-76 -98 -178 -98q-77 0 -127.5 59.5t-50.5 148.5zM458 263q18 -2 51 -2q81 0 129.5 23.5t48.5 63.5q0 25 -20.5 42t-58.5 17q-48 0 -93 -44.5t-57 -99.5zM226 55q62 0 109.5 60t47.5 143q0 71 -29 110t-81 39q-67 0 -113 -60
t-46 -146q0 -61 32 -103.5t80 -42.5z" />
    <glyph glyph-name="Racute" unicode="&#x154;" horiz-adv-x="608" 
d="M58 19l93 662q1 7 6.5 13t12.5 6h225q81 0 131 -56.5t50 -138.5q0 -74 -45.5 -137t-118.5 -86l87 -253q4 -10 -1 -19.5t-16 -9.5h-40q-20 0 -25 19l-79 255h-168l-36 -255q-1 -8 -6.5 -13.5t-12.5 -5.5h-43q-7 0 -11.5 5.5t-2.5 13.5zM181 340h163q64 0 108.5 48
t44.5 116q0 51 -32 87t-80 36h-163zM290 779q-17 -8 -22 8l-7 18q-4 12 8 19l148 84q4 4 13 2.5t12 -10.5l13 -33q6 -15 -8 -21z" />
    <glyph glyph-name="racute" unicode="&#x155;" horiz-adv-x="362" 
d="M59 0q-8 0 -13 6.5t-4 15.5l58 418q2 22 23 22h20q12 0 15 -16l5 -33q51 59 129 59q38 0 60 -11q15 -7 7 -25l-14 -31q-6 -15 -26 -8q-23 9 -47 9q-33 0 -64.5 -21.5t-48.5 -43.5l-43 -319q-6 -22 -26 -22h-31zM185 557q-17 -8 -22 8l-7 18q-4 12 8 19l148 84q4 4 13 2.5
t12 -10.5l13 -33q6 -15 -8 -21z" />
    <glyph glyph-name="Rcommaaccent" unicode="&#x156;" horiz-adv-x="608" 
d="M58 19l93 662q1 7 6.5 13t12.5 6h225q81 0 131 -56.5t50 -138.5q0 -74 -45.5 -137t-118.5 -86l87 -253q4 -10 -1 -19.5t-16 -9.5h-40q-20 0 -25 19l-79 255h-168l-36 -255q-1 -8 -6.5 -13.5t-12.5 -5.5h-43q-7 0 -11.5 5.5t-2.5 13.5zM181 340h163q64 0 108.5 48
t44.5 116q0 51 -32 87t-80 36h-163zM186 -125q0 24 18 39t43 15q27 0 42.5 -17t15.5 -49q0 -75 -63 -131q-7 -6 -15 0l-14 12q-9 8 2 17q39 37 39 75q0 7 -2 12q-7 -7 -27 -7q-18 0 -28.5 9.5t-10.5 24.5z" />
    <glyph glyph-name="rcommaaccent" unicode="&#x157;" horiz-adv-x="362" 
d="M59 0q-8 0 -13 6.5t-4 15.5l58 418q2 22 23 22h20q12 0 15 -16l5 -33q51 59 129 59q38 0 60 -11q15 -7 7 -25l-14 -31q-6 -15 -26 -8q-23 9 -47 9q-33 0 -64.5 -21.5t-48.5 -43.5l-43 -319q-6 -22 -26 -22h-31zM7 -125q0 24 18 39t43 15q27 0 42.5 -17t15.5 -49
q0 -75 -63 -131q-7 -6 -15 0l-14 12q-9 8 2 17q39 37 39 75q0 7 -2 12q-7 -7 -27 -7q-18 0 -28.5 9.5t-10.5 24.5z" />
    <glyph glyph-name="Rcaron" unicode="&#x158;" horiz-adv-x="608" 
d="M58 19l93 662q1 7 6.5 13t12.5 6h225q81 0 131 -56.5t50 -138.5q0 -74 -45.5 -137t-118.5 -86l87 -253q4 -10 -1 -19.5t-16 -9.5h-40q-20 0 -25 19l-79 255h-168l-36 -255q-1 -8 -6.5 -13.5t-12.5 -5.5h-43q-7 0 -11.5 5.5t-2.5 13.5zM181 340h163q64 0 108.5 48
t44.5 116q0 51 -32 87t-80 36h-163zM337 764q-9 0 -19 12l-84 91q-8 9 2 19l14 15q12 12 21 4l78 -66l102 71q15 11 22 -3l9 -18q8 -15 -5 -24l-119 -94q-9 -7 -18 -7h-3z" />
    <glyph glyph-name="rcaron" unicode="&#x159;" horiz-adv-x="362" 
d="M59 0q-8 0 -13 6.5t-4 15.5l58 418q2 22 23 22h20q12 0 15 -16l5 -33q51 59 129 59q38 0 60 -11q15 -7 7 -25l-14 -31q-6 -15 -26 -8q-23 9 -47 9q-33 0 -64.5 -21.5t-48.5 -43.5l-43 -319q-6 -22 -26 -22h-31zM217 544q-9 0 -19 12l-84 91q-8 9 2 19l14 15q12 12 21 4
l78 -66l102 71q15 11 22 -3l9 -18q8 -15 -5 -24l-119 -94q-9 -7 -18 -7h-3z" />
    <glyph glyph-name="Sacute" unicode="&#x15a;" horiz-adv-x="500" 
d="M33 76q-13 14 2 29l16 17q18 18 32 5q2 -2 15 -14.5t18.5 -16.5t20 -13.5t26 -13.5t30 -8t38.5 -4q52 0 89 33t37 88q0 44 -30.5 76t-99.5 72q-68 39 -101 78.5t-33 103.5q0 34 11.5 67.5t35 64.5t68 50.5t102.5 19.5q88 0 155 -51q16 -13 1 -34l-11 -16q-15 -21 -33 -9
q-62 43 -119 43q-61 0 -97.5 -39t-36.5 -87q0 -40 25.5 -70t75.5 -57q86 -46 127.5 -90t41.5 -114q0 -86 -58.5 -141t-160.5 -55q-101 0 -187 86zM267 779q-17 -8 -22 8l-7 18q-4 12 8 19l148 84q4 4 13 2.5t12 -10.5l13 -33q6 -15 -8 -21z" />
    <glyph glyph-name="sacute" unicode="&#x15b;" horiz-adv-x="383" 
d="M154 -11q-70 0 -129 49q-11 11 -2 25l17 26q10 17 28 3q45 -37 95 -37q32 0 54 19.5t22 47.5q0 23 -18.5 42.5t-59.5 45.5q-34 21 -49.5 32.5t-33 37.5t-17.5 57q0 51 38.5 93t113.5 42q70 0 113 -34q15 -13 4 -33l-10 -19q-10 -18 -31 -6q-41 26 -83 26q-35 0 -52.5 -18
t-17.5 -42q0 -15 10.5 -29.5t21.5 -22t34 -22.5q29 -19 44 -29.5t34 -28.5t27 -39t8 -46q0 -57 -42.5 -98.5t-118.5 -41.5zM183 557q-17 -8 -22 8l-7 18q-4 12 8 19l148 84q4 4 13 2.5t12 -10.5l13 -33q6 -15 -8 -21z" />
    <glyph glyph-name="Scircumflex" unicode="&#x15c;" horiz-adv-x="500" 
d="M33 76q-13 14 2 29l16 17q18 18 32 5q2 -2 15 -14.5t18.5 -16.5t20 -13.5t26 -13.5t30 -8t38.5 -4q52 0 89 33t37 88q0 44 -30.5 76t-99.5 72q-68 39 -101 78.5t-33 103.5q0 34 11.5 67.5t35 64.5t68 50.5t102.5 19.5q88 0 155 -51q16 -13 1 -34l-11 -16q-15 -21 -33 -9
q-62 43 -119 43q-61 0 -97.5 -39t-36.5 -87q0 -40 25.5 -70t75.5 -57q86 -46 127.5 -90t41.5 -114q0 -86 -58.5 -141t-160.5 -55q-101 0 -187 86zM235 771q-15 -11 -22 3l-9 18q-8 16 5 24l119 94q9 7 18 7h3q9 0 19 -12l84 -91q8 -9 -2 -19l-14 -15q-12 -12 -21 -4l-78 66z
" />
    <glyph glyph-name="scircumflex" unicode="&#x15d;" horiz-adv-x="383" 
d="M154 -11q-70 0 -129 49q-11 11 -2 25l17 26q10 17 28 3q45 -37 95 -37q32 0 54 19.5t22 47.5q0 23 -18.5 42.5t-59.5 45.5q-34 21 -49.5 32.5t-33 37.5t-17.5 57q0 51 38.5 93t113.5 42q70 0 113 -34q15 -13 4 -33l-10 -19q-10 -18 -31 -6q-41 26 -83 26q-35 0 -52.5 -18
t-17.5 -42q0 -15 10.5 -29.5t21.5 -22t34 -22.5q29 -19 44 -29.5t34 -28.5t27 -39t8 -46q0 -57 -42.5 -98.5t-118.5 -41.5zM119 554l-9 18q-8 16 5 24l119 94q9 7 18 7h3q9 0 19 -12l84 -91q8 -9 -2 -19l-14 -15q-12 -12 -21 -4l-78 66l-102 -71q-15 -11 -22 3z" />
    <glyph glyph-name="Scedilla" unicode="&#x15e;" horiz-adv-x="499" 
d="M32 76q-12 15 2 29l16 17q19 19 32 5q61 -70 144 -70q51 0 90.5 36.5t39.5 84.5q0 44 -30.5 76t-99.5 72q-68 39 -101 78.5t-33 103.5q0 34 11.5 67.5t35 64.5t68 50.5t102.5 19.5q89 0 155 -51q16 -13 1 -34l-11 -16q-18 -21 -33 -9q-19 16 -52.5 29.5t-66.5 13.5
q-62 0 -98 -41t-36 -85q0 -40 25.5 -70t75.5 -57q86 -46 127.5 -90t41.5 -114q0 -81 -53 -135t-146 -60l-43 -58q12 4 25 4q31 0 52.5 -19t21.5 -54q0 -46 -36.5 -75t-86.5 -29q-52 0 -81 31q-7 9 3 21l9 12q11 16 22 5q22 -20 47 -20q28 0 46 12t18 37q0 32 -48 32
q-29 0 -49 -10q-6 -2 -10.5 4t-1.5 11l58 97q-41 5 -78.5 25.5t-51 33.5t-23.5 25z" />
    <glyph glyph-name="scedilla" unicode="&#x15f;" horiz-adv-x="384" 
d="M315 129q0 -51 -34.5 -90.5t-96.5 -47.5l-44 -58q12 4 25 4q31 0 52.5 -19t21.5 -54q0 -46 -36.5 -75t-86.5 -29q-52 0 -81 31q-7 9 3 21l9 12q11 16 22 5q22 -20 47 -20q28 0 46 12t18 37q0 33 -48 33q-29 0 -49 -10q-6 -2 -10.5 4t-1.5 11l57 95q-58 9 -103 47
q-11 11 -2 25l17 26q10 17 28 3q45 -37 95 -37q32 0 54 19.5t22 47.5q0 23 -18.5 42.5t-59.5 45.5q-34 21 -49.5 32.5t-33 37.5t-17.5 57q0 51 38.5 93t113.5 42q70 0 113 -34q15 -13 4 -33l-10 -19q-10 -18 -31 -6q-40 26 -83 26q-34 0 -52 -19.5t-18 -40.5
q0 -15 10.5 -29.5t21.5 -22t34 -22.5q29 -19 44 -29.5t34 -28.5t27 -39t8 -46z" />
    <glyph glyph-name="Scaron" unicode="&#x160;" horiz-adv-x="500" 
d="M33 76q-13 14 2 29l16 17q18 18 32 5q2 -2 15 -14.5t18.5 -16.5t20 -13.5t26 -13.5t30 -8t38.5 -4q52 0 89 33t37 88q0 44 -30.5 76t-99.5 72q-68 39 -101 78.5t-33 103.5q0 34 11.5 67.5t35 64.5t68 50.5t102.5 19.5q88 0 155 -51q16 -13 1 -34l-11 -16q-15 -21 -33 -9
q-62 43 -119 43q-61 0 -97.5 -39t-36.5 -87q0 -40 25.5 -70t75.5 -57q86 -46 127.5 -90t41.5 -114q0 -86 -58.5 -141t-160.5 -55q-101 0 -187 86zM324 764q-9 0 -19 12l-84 91q-8 9 2 19l14 15q12 12 21 4l78 -66l102 71q15 11 22 -3l9 -18q8 -15 -5 -24l-119 -94
q-9 -7 -18 -7h-3z" />
    <glyph glyph-name="scaron" unicode="&#x161;" horiz-adv-x="383" 
d="M154 -11q-70 0 -129 49q-11 11 -2 25l17 26q10 17 28 3q45 -37 95 -37q32 0 54 19.5t22 47.5q0 23 -18.5 42.5t-59.5 45.5q-34 21 -49.5 32.5t-33 37.5t-17.5 57q0 51 38.5 93t113.5 42q70 0 113 -34q15 -13 4 -33l-10 -19q-10 -18 -31 -6q-41 26 -83 26q-35 0 -52.5 -18
t-17.5 -42q0 -15 10.5 -29.5t21.5 -22t34 -22.5q29 -19 44 -29.5t34 -28.5t27 -39t8 -46q0 -57 -42.5 -98.5t-118.5 -41.5zM221 544q-9 0 -19 12l-84 91q-8 9 2 19l14 15q12 12 21 4l78 -66l102 71q15 11 22 -3l9 -18q8 -15 -5 -24l-119 -94q-9 -7 -18 -7h-3z" />
    <glyph glyph-name="Tcommaaccent" unicode="&#x162;" horiz-adv-x="476" 
d="M167 3q-8 5 -6 16l86 614h-153q-7 0 -11.5 5.5t-2.5 13.5l4 29q1 7 6.5 13t12.5 6h384q7 0 11.5 -5.5t2.5 -13.5l-4 -29q-1 -8 -7 -13.5t-13 -5.5h-153l-86 -614q-3 -15 -16 -19l-51 -67q12 4 25 4q30 0 50.5 -19t20.5 -54q0 -46 -35 -75t-85 -29q-52 0 -81 31q-7 9 3 21
l9 12q11 16 22 5q22 -20 47 -20q27 0 45.5 14t18.5 39q0 37 -48 37q-25 0 -45 -10q-6 -2 -10.5 4t-1.5 11z" />
    <glyph glyph-name="tcommaaccent" unicode="&#x163;" horiz-adv-x="357" 
d="M287 27q-36 -28 -88 -35l-44 -59q12 4 25 4q30 0 50.5 -19t20.5 -54q0 -46 -35 -75t-85 -29q-52 0 -81 31q-7 9 3 21l9 12q11 16 22 5q22 -20 47 -20q27 0 45.5 14t18.5 39q0 37 -48 37q-25 0 -45 -10q-6 -2 -10.5 4t-1.5 11l54 88q-38 9 -55.5 42.5t-10.5 80.5l40 282
h-52q-9 0 -14.5 6.5t-3.5 15.5l4 21q7 22 22 22h55l17 128q3 20 23 22l36 2q7 1 12 -6t4 -16l-18 -130h118q19 0 17 -22l-3 -21q-1 -9 -8 -15.5t-15 -6.5h-119l-41 -285q-4 -31 6 -42t30 -11q33 0 73 32q17 14 27 -9l11 -25q7 -16 -12 -30z" />
    <glyph glyph-name="Tcaron" unicode="&#x164;" horiz-adv-x="476" 
d="M162 19l86 614h-153q-7 0 -11.5 5.5t-2.5 13.5l4 29q1 7 6.5 13t12.5 6h384q7 0 11.5 -5.5t2.5 -13.5l-4 -29q-1 -8 -7 -13.5t-13 -5.5h-153l-86 -614q-4 -19 -20 -19h-42q-7 0 -11.5 5.5t-3.5 13.5zM303 764q-9 0 -19 12l-84 91q-8 9 2 19l14 15q12 12 21 4l78 -66
l102 71q15 11 22 -3l9 -18q8 -15 -5 -24l-119 -94q-9 -7 -18 -7h-3z" />
    <glyph glyph-name="tcaron" unicode="&#x165;" horiz-adv-x="355" 
d="M171 -11q-52 0 -77 35.5t-17 90.5l40 282h-52q-9 0 -14.5 6.5t-3.5 15.5l4 21q7 22 22 22h55l17 128q3 20 23 22l36 2q7 1 12.5 -6t3.5 -16l-18 -130h118q19 0 17 -22l-3 -21q-1 -9 -8 -15.5t-15 -6.5h-119l-41 -285q-4 -31 6 -42t30 -11q33 0 73 32q17 14 27 -9l11 -25
q7 -16 -12 -30q-49 -38 -115 -38zM329 656q0 24 18 39t43 15q27 0 42.5 -17t15.5 -49q0 -75 -63 -131q-7 -6 -15 0l-14 12q-9 8 2 17q39 37 39 75q0 7 -2 12q-7 -7 -27 -7q-18 0 -28.5 9.5t-10.5 24.5z" />
    <glyph glyph-name="Tbar" unicode="&#x166;" horiz-adv-x="478" 
d="M163 19l38 276h-104q-15 0 -13 19l1 7q2 19 19 19h104l41 293h-153q-7 0 -11.5 5.5t-2.5 13.5l4 29q1 7 6.5 13t12.5 6h384q7 0 11.5 -5.5t2.5 -13.5l-4 -29q-1 -8 -7 -13.5t-13 -5.5h-153l-41 -293h104q7 0 11.5 -5.5t2.5 -13.5l-1 -8q-2 -18 -19 -18h-105l-38 -276
q-4 -19 -20 -19h-42q-7 0 -11.5 5.5t-3.5 13.5z" />
    <glyph glyph-name="tbar" unicode="&#x167;" horiz-adv-x="355" 
d="M172 -11q-52 0 -77 35.5t-17 90.5l13 92h-38q-15 0 -13 19l1 7q2 19 19 19h37l21 145h-52q-9 0 -14.5 6.5t-3.5 15.5l4 21q7 22 22 22h55l17 128q3 20 23 22l36 2q7 1 12 -6t4 -16l-18 -130h118q19 0 17 -22l-3 -21q-1 -9 -8 -15.5t-15 -6.5h-119l-21 -145h75
q7 0 11.5 -5.5t3.5 -13.5l-1 -8q-4 -18 -20 -18h-76l-13 -95q-4 -31 6 -42t30 -11q33 0 73 32q17 14 27 -9l11 -25q7 -16 -12 -30q-49 -38 -115 -38z" />
    <glyph glyph-name="Utilde" unicode="&#x168;" horiz-adv-x="658" 
d="M84 246l60 435q4 19 20 19h43q7 0 11.5 -5.5t2.5 -13.5l-59 -429q-3 -21 -3 -40q0 -69 36 -110t102 -41q75 0 128 53.5t64 135.5l60 431q1 7 6.5 13t12.5 6h43q7 0 11 -6t3 -13l-60 -435q-16 -117 -87.5 -186.5t-189.5 -69.5q-92 0 -149.5 58.5t-57.5 154.5q0 20 3 43z
M289 795l-16 8q-11 7 -4 23q6 15 15 31t32 34.5t50 18.5q18 0 32 -11t21.5 -25t17 -25t18.5 -11q25 0 42 47q8 21 25 11l14 -8q13 -8 7 -23q-9 -29 -34 -57t-62 -28q-15 0 -29 11.5t-23 25t-18.5 25t-17.5 11.5q-12 0 -22.5 -10.5t-14 -17.5t-9.5 -22q-3 -7 -10 -9.5
t-14 1.5z" />
    <glyph glyph-name="utilde" unicode="&#x169;" horiz-adv-x="496" 
d="M182 -11q-80 0 -108.5 48t-14.5 143l35 260q2 8 9 15t14 7h35q8 0 13.5 -7t4.5 -15l-36 -261q-10 -67 4.5 -95.5t61.5 -28.5q15 0 29.5 4t25.5 11t21.5 14.5t18 15.5t13 15t8.5 11l3 4l45 310q1 8 8 15t15 7h33q8 0 13.5 -7t4.5 -15l-59 -418q-2 -22 -23 -22h-20
q-13 0 -16 20l-4 29l-4 -4q-3 -4 -9 -9t-14 -11.5t-19.5 -12.5t-24.5 -11.5t-29.5 -8.5t-33.5 -3zM174 575l-16 8q-11 7 -4 23q6 15 15 31t31.5 34.5t48.5 18.5q23 0 39 -18t27.5 -36t24.5 -18q25 0 42 47q8 21 25 11l14 -8q13 -8 7 -23q-9 -28 -33 -56.5t-60 -28.5
q-16 0 -30.5 11.5t-22.5 25t-18.5 25t-19.5 11.5q-12 0 -22.5 -10.5t-14 -17.5t-9.5 -22q-3 -7 -10 -9.5t-14 1.5z" />
    <glyph glyph-name="Umacron" unicode="&#x16a;" horiz-adv-x="658" 
d="M84 246l60 435q4 19 20 19h43q7 0 11.5 -5.5t2.5 -13.5l-59 -429q-3 -21 -3 -40q0 -69 36 -110t102 -41q75 0 128 53.5t64 135.5l60 431q1 7 6.5 13t12.5 6h43q7 0 11 -6t3 -13l-60 -435q-16 -117 -87.5 -186.5t-189.5 -69.5q-92 0 -149.5 58.5t-57.5 154.5q0 20 3 43z
M287 821q-16 0 -14 18l3 21q2 19 20 19h230q17 0 14 -19l-2 -21q-4 -18 -20 -18h-231z" />
    <glyph glyph-name="umacron" unicode="&#x16b;" horiz-adv-x="496" 
d="M182 -11q-80 0 -108.5 48t-14.5 143l35 260q2 8 9 15t14 7h35q8 0 13.5 -7t4.5 -15l-36 -261q-10 -67 4.5 -95.5t61.5 -28.5q15 0 29.5 4t25.5 11t21.5 14.5t18 15.5t13 15t8.5 11l3 4l45 310q1 8 8 15t15 7h33q8 0 13.5 -7t4.5 -15l-59 -418q-2 -22 -23 -22h-20
q-13 0 -16 20l-4 29l-4 -4q-3 -4 -9 -9t-14 -11.5t-19.5 -12.5t-24.5 -11.5t-29.5 -8.5t-33.5 -3zM168 583q-17 0 -15 18l3 21q3 19 20 19h231q7 0 11 -5.5t3 -13.5l-3 -21q-2 -18 -20 -18h-230z" />
    <glyph glyph-name="Ubreve" unicode="&#x16c;" horiz-adv-x="658" 
d="M84 246l60 435q4 19 20 19h43q7 0 11.5 -5.5t2.5 -13.5l-59 -429q-3 -21 -3 -40q0 -69 36 -110t102 -41q75 0 128 53.5t64 135.5l60 431q1 7 6.5 13t12.5 6h43q7 0 11 -6t3 -13l-60 -435q-16 -117 -87.5 -186.5t-189.5 -69.5q-92 0 -149.5 58.5t-57.5 154.5q0 20 3 43z
M398 771q-44 0 -75.5 33t-30.5 81q0 20 16 20h19q13 0 15 -17q10 -64 62 -64q23 0 44.5 18.5t33.5 45.5q8 17 19 17h25q17 0 10 -20q-15 -50 -51.5 -82t-86.5 -32z" />
    <glyph glyph-name="ubreve" unicode="&#x16d;" horiz-adv-x="496" 
d="M182 -11q-80 0 -108.5 48t-14.5 143l35 260q2 8 9 15t14 7h35q8 0 13.5 -7t4.5 -15l-36 -261q-10 -67 4.5 -95.5t61.5 -28.5q15 0 29.5 4t25.5 11t21.5 14.5t18 15.5t13 15t8.5 11l3 4l45 310q1 8 8 15t15 7h33q8 0 13.5 -7t4.5 -15l-59 -418q-2 -22 -23 -22h-20
q-13 0 -16 20l-4 29l-4 -4q-3 -4 -9 -9t-14 -11.5t-19.5 -12.5t-24.5 -11.5t-29.5 -8.5t-33.5 -3zM280 531q-44 0 -75.5 33t-30.5 81q0 20 16 20h19q13 0 15 -17q10 -64 62 -64q23 0 44.5 18.5t33.5 45.5q8 17 19 17h25q17 0 10 -20q-15 -50 -51.5 -82t-86.5 -32z" />
    <glyph glyph-name="Uring" unicode="&#x16e;" horiz-adv-x="658" 
d="M84 246l60 435q4 19 20 19h43q7 0 11.5 -5.5t2.5 -13.5l-59 -429q-3 -21 -3 -40q0 -69 36 -110t102 -41q75 0 128 53.5t64 135.5l60 431q1 7 6.5 13t12.5 6h43q7 0 11 -6t3 -13l-60 -435q-16 -117 -87.5 -186.5t-189.5 -69.5q-92 0 -149.5 58.5t-57.5 154.5q0 20 3 43z
M394 758q-37 0 -61 27t-24 67q0 52 34 88t81 36q36 0 60.5 -27.5t24.5 -66.5q0 -51 -34 -87.5t-81 -36.5zM400 806q23 0 41 21t18 48q0 22 -11 36.5t-31 14.5q-23 0 -41.5 -20t-18.5 -46q0 -22 11.5 -38t31.5 -16z" />
    <glyph glyph-name="uring" unicode="&#x16f;" horiz-adv-x="496" 
d="M182 -11q-80 0 -108.5 48t-14.5 143l35 260q2 8 9 15t14 7h35q8 0 13.5 -7t4.5 -15l-36 -261q-10 -67 4.5 -95.5t61.5 -28.5q15 0 29.5 4t25.5 11t21.5 14.5t18 15.5t13 15t8.5 11l3 4l45 310q1 8 8 15t15 7h33q8 0 13.5 -7t4.5 -15l-59 -418q-2 -22 -23 -22h-20
q-13 0 -16 20l-4 29l-4 -4q-3 -4 -9 -9t-14 -11.5t-19.5 -12.5t-24.5 -11.5t-29.5 -8.5t-33.5 -3zM281 513q-37 0 -61 27t-24 67q0 52 34 88t81 36q36 0 60.5 -27.5t24.5 -66.5q0 -51 -34 -87.5t-81 -36.5zM287 561q23 0 41 21t18 48q0 22 -11 36.5t-31 14.5
q-23 0 -41.5 -19.5t-18.5 -46.5q0 -22 11.5 -38t31.5 -16z" />
    <glyph glyph-name="Uhungarumlaut" unicode="&#x170;" horiz-adv-x="658" 
d="M84 246l60 435q4 19 20 19h43q7 0 11.5 -5.5t2.5 -13.5l-59 -429q-3 -21 -3 -40q0 -69 36 -110t102 -41q75 0 128 53.5t64 135.5l60 431q1 7 6.5 13t12.5 6h43q7 0 11 -6t3 -13l-60 -435q-16 -117 -87.5 -186.5t-189.5 -69.5q-92 0 -149.5 58.5t-57.5 154.5q0 20 3 43z
M465 769q-7 0 -11 6t-1 13l63 141q8 19 20 19h40q12 0 15.5 -7.5t-2.5 -17.5l-90 -139q-9 -15 -19 -15h-15zM316 769q-7 0 -11 6t-1 13l63 141q8 19 20 19h40q12 0 15.5 -7.5t-2.5 -17.5l-90 -139q-9 -15 -19 -15h-15z" />
    <glyph glyph-name="uhungarumlaut" unicode="&#x171;" horiz-adv-x="496" 
d="M182 -11q-80 0 -108.5 48t-14.5 143l35 260q2 8 9 15t14 7h35q8 0 13.5 -7t4.5 -15l-36 -261q-10 -67 4.5 -95.5t61.5 -28.5q15 0 29.5 4t25.5 11t21.5 14.5t18 15.5t13 15t8.5 11l3 4l45 310q1 8 8 15t15 7h33q8 0 13.5 -7t4.5 -15l-59 -418q-2 -22 -23 -22h-20
q-13 0 -16 20l-4 29l-4 -4q-3 -4 -9 -9t-14 -11.5t-19.5 -12.5t-24.5 -11.5t-29.5 -8.5t-33.5 -3zM340 521q-7 0 -11 6t-1 13l63 141q8 19 20 19h40q12 0 15.5 -7.5t-2.5 -17.5l-90 -139q-9 -15 -19 -15h-15zM191 521q-7 0 -11 6t-1 13l63 141q8 19 20 19h40q12 0 15.5 -7.5
t-2.5 -17.5l-90 -139q-9 -15 -19 -15h-15z" />
    <glyph glyph-name="Uogonek" unicode="&#x172;" horiz-adv-x="658" 
d="M85 258l59 423q4 19 20 19h43q7 0 11.5 -5.5t2.5 -13.5l-58 -417q-3 -21 -3 -41q0 -72 36.5 -117t100.5 -45q74 0 127.5 59t65.5 142l59 419q1 7 6.5 13t12.5 6h43q7 0 11 -6t3 -13l-59 -423q-13 -97 -64 -166t-134 -92q-123 -68 -123 -142q0 -42 44 -42q28 0 67 26
q6 5 11 3.5t4 -8.5l-4 -36q-2 -16 -15 -24q-39 -21 -83 -21q-42 0 -65.5 24t-23.5 61q0 83 97 149q-87 4 -141 66t-54 157q0 23 3 45z" />
    <glyph glyph-name="uogonek" unicode="&#x173;" horiz-adv-x="496" 
d="M182 -11q-150 0 -122 202l34 249q2 8 9 15t14 7h35q8 0 13.5 -7t4.5 -15l-35 -250q-10 -68 4.5 -101.5t60.5 -33.5q15 0 29.5 4t25.5 11t21.5 14.5t18 15.5t13 15t8.5 11l3 4l45 310q1 8 8 15t15 7h33q8 0 13.5 -7t4.5 -15l-59 -421q-1 -13 -20 -22q-49 -23 -85.5 -58
t-36.5 -81q0 -42 44 -42q28 0 67 26q6 5 11 3.5t4 -8.5l-4 -36q-2 -16 -15 -24q-39 -21 -83 -21q-42 0 -65.5 24t-23.5 61q0 90 148 179l-4 29l-4 -4q-3 -4 -9 -9t-14 -11.5t-19.5 -12.5t-24.5 -11.5t-29.5 -8.5t-33.5 -3z" />
    <glyph glyph-name="Wcircumflex" unicode="&#x174;" horiz-adv-x="818" 
d="M166 4l-75 672q-1 10 4.5 17t14.5 7h42q13 0 15 -14l47 -516h3l224 529q5 11 17 11h16q12 0 14 -11l77 -529h3l191 516q6 14 18 14h48q10 0 13.5 -7t-0.5 -17l-265 -672q-5 -14 -18 -14h-14q-12 0 -14 11l-81 539h-4l-230 -539q-5 -11 -17 -11h-14q-13 0 -15 14zM384 771
q-15 -11 -22 3l-9 18q-8 16 5 24l119 94q9 7 18 7h3q9 0 19 -12l84 -91q8 -9 -2 -19l-14 -15q-12 -12 -21 -4l-78 66z" />
    <glyph glyph-name="wcircumflex" unicode="&#x175;" horiz-adv-x="655" 
d="M122 1l-59 442q-3 19 18 19h35q17 0 19 -16l34 -295h3l162 311q6 12 20 12h6q13 0 15 -12l67 -311h3l118 295q7 16 23 16h29q26 0 17 -23l-178 -438q-7 -12 -19 -12h-6q-14 0 -16 12l-73 338h-3l-175 -338q-6 -12 -19 -12h-5q-14 0 -16 12zM252 554l-9 18q-8 16 5 24
l119 94q9 7 18 7h3q9 0 19 -12l84 -91q8 -9 -2 -19l-14 -15q-12 -12 -21 -4l-78 66l-102 -71q-15 -11 -22 3z" />
    <glyph glyph-name="Ycircumflex" unicode="&#x176;" horiz-adv-x="536" 
d="M190 19l45 318l-170 339q-5 9 -0.5 16.5t14.5 7.5h46q9 0 14 -9l139 -285h2l222 285q7 9 16 9h48q11 0 14 -9.5t-4 -19.5l-264 -333l-45 -319q-1 -7 -7 -13t-13 -6h-42q-7 0 -11.5 5.5t-3.5 13.5zM237 771q-15 -11 -22 3l-9 18q-8 16 5 24l119 94q9 7 18 7h3q9 0 19 -12
l84 -91q8 -9 -2 -19l-14 -15q-12 -12 -21 -4l-78 66z" />
    <glyph glyph-name="ycircumflex" unicode="&#x177;" horiz-adv-x="485" 
d="M164 0l-112 437q-3 11 2.5 18t16.5 7h37q13 0 16 -13l85 -369h3l188 369q6 13 20 13h41q11 0 15.5 -7.5t-1.5 -18.5l-352 -660q-7 -14 -20 -14h-43q-12 0 -15 7t3 19zM168 554l-9 18q-8 16 5 24l119 94q9 7 18 7h3q9 0 19 -12l84 -91q8 -9 -2 -19l-14 -15q-12 -12 -21 -4
l-78 66l-102 -71q-15 -11 -22 3z" />
    <glyph glyph-name="Ydieresis" unicode="&#x178;" horiz-adv-x="536" 
d="M190 19l45 318l-170 339q-5 9 -0.5 16.5t14.5 7.5h46q9 0 14 -9l139 -285h2l222 285q7 9 16 9h48q11 0 14 -9.5t-4 -19.5l-264 -333l-45 -319q-1 -7 -7 -13t-13 -6h-42q-7 0 -11.5 5.5t-3.5 13.5zM429 788q-20 0 -31.5 12.5t-11.5 32.5q0 24 17 41t39 17q19 0 31.5 -13
t12.5 -33q0 -23 -17.5 -40t-39.5 -17zM234 788q-20 0 -31.5 12.5t-11.5 32.5q0 24 17 41t39 17q19 0 31.5 -13t12.5 -33q0 -23 -17.5 -40t-39.5 -17z" />
    <glyph glyph-name="Zacute" unicode="&#x179;" horiz-adv-x="490" 
d="M105 72v-2h287q7 0 12 -5.5t3 -13.5l-5 -32q-4 -19 -20 -19h-374q-7 0 -11 5.5t-3 13.5l1 8q1 10 7 18l397 582v3h-276q-7 0 -11.5 6t-3.5 13l5 32q4 19 20 19h366q14 0 14 -14t-8 -26zM261 779q-17 -8 -22 8l-7 18q-4 12 8 19l148 84q4 4 13 2.5t12 -10.5l13 -33
q6 -15 -8 -21z" />
    <glyph glyph-name="zacute" unicode="&#x17a;" horiz-adv-x="391" 
d="M273 0h-249q-19 0 -19 19q0 13 7 23l253 352v3h-181q-8 0 -12.5 6.5t-2.5 15.5l4 21q1 10 7.5 16t14.5 6h264q18 0 18 -18q0 -7 -4 -14l-261 -364v-1h171q9 0 14 -6t3 -16l-4 -21q-4 -22 -23 -22zM186 557q-17 -8 -22 8l-7 18q-4 12 8 19l148 84q4 4 13 2.5t12 -10.5
l13 -33q6 -15 -8 -21z" />
    <glyph glyph-name="Zdotaccent" unicode="&#x17b;" horiz-adv-x="490" 
d="M105 72v-2h287q7 0 12 -5.5t3 -13.5l-5 -32q-4 -19 -20 -19h-374q-7 0 -11 5.5t-3 13.5l1 8q1 10 7 18l397 582v3h-276q-7 0 -11.5 6t-3.5 13l5 32q4 19 20 19h366q14 0 14 -14t-8 -26zM328 797q-21 0 -35 13.5t-14 33.5q0 26 19.5 44.5t44.5 18.5q20 0 33.5 -13.5
t13.5 -33.5q0 -25 -18.5 -44t-43.5 -19z" />
    <glyph glyph-name="zdotaccent" unicode="&#x17c;" horiz-adv-x="391" 
d="M273 0h-249q-19 0 -19 19q0 13 7 23l253 352v3h-181q-8 0 -12.5 6.5t-2.5 15.5l4 21q1 10 7.5 16t14.5 6h264q18 0 18 -18q0 -7 -4 -14l-261 -364v-1h171q9 0 14 -6t3 -16l-4 -21q-4 -22 -23 -22zM241 581q-21 0 -35 13.5t-14 33.5q0 26 19.5 44.5t44.5 18.5
q20 0 33.5 -13.5t13.5 -33.5q0 -25 -18.5 -44t-43.5 -19z" />
    <glyph glyph-name="Zcaron" unicode="&#x17d;" horiz-adv-x="490" 
d="M105 72v-2h287q7 0 12 -5.5t3 -13.5l-5 -32q-4 -19 -20 -19h-374q-7 0 -11 5.5t-3 13.5l1 8q1 10 7 18l397 582v3h-276q-7 0 -11.5 6t-3.5 13l5 32q4 19 20 19h366q14 0 14 -14t-8 -26zM313 764q-9 0 -19 12l-84 91q-8 9 2 19l14 15q12 12 21 4l78 -66l102 71
q15 11 22 -3l9 -18q8 -15 -5 -24l-119 -94q-9 -7 -18 -7h-3z" />
    <glyph glyph-name="zcaron" unicode="&#x17e;" horiz-adv-x="391" 
d="M273 0h-249q-19 0 -19 19q0 13 7 23l253 352v3h-181q-8 0 -12.5 6.5t-2.5 15.5l4 21q1 10 7.5 16t14.5 6h264q18 0 18 -18q0 -7 -4 -14l-261 -364v-1h171q9 0 14 -6t3 -16l-4 -21q-4 -22 -23 -22zM226 544q-9 0 -19 12l-84 91q-8 9 2 19l14 15q12 12 21 4l78 -66l102 71
q15 11 22 -3l9 -18q8 -15 -5 -24l-119 -94q-9 -7 -18 -7h-3z" />
    <glyph glyph-name="florin" unicode="&#x192;" horiz-adv-x="327" 
d="M57 -78l59 418h-57q-7 0 -11.5 5.5t-2.5 13.5l3 22q1 8 6.5 13.5t12.5 5.5h57l20 140q12 85 55.5 127.5t110.5 42.5q61 0 95 -41q9 -11 0 -23l-19 -24q-11 -14 -23 -1q-8 9 -27 18t-34 9q-32 0 -56 -26.5t-32 -81.5l-19 -140h102q17 0 14 -19l-3 -22q-1 -8 -7 -13.5
t-13 -5.5h-102l-58 -418q-23 -170 -167 -170q-60 0 -94 41q-10 12 -1 23l20 24q10 13 23 1q8 -9 27 -18t34 -9q32 0 56 26.5t31 81.5z" />
    <glyph glyph-name="Aringacute" unicode="&#x1fa;" horiz-adv-x="616" 
d="M338 897q-17 -8 -22 8l-7 18q-4 12 8 19l148 84q4 4 13 2.5t12 -10.5l13 -33q6 -15 -8 -21zM-9 0q-10 0 -13.5 8t1.5 18l355 648q-52 23 -52 88q0 52 34 88t81 36q36 0 60.5 -27.5t24.5 -66.5q0 -43 -25 -76.5t-62 -43.5l171 -646q2 -10 -3.5 -18t-15.5 -8h-42
q-13 0 -15 11l-40 165h-312l-85 -165q-7 -11 -19 -11h-43zM373 716q23 0 41 21t18 48q0 22 -11 36.5t-31 14.5q-23 0 -41.5 -20t-18.5 -46q0 -22 11.5 -38t31.5 -16zM175 238h256l-79 328h-6z" />
    <glyph glyph-name="aringacute" unicode="&#x1fb;" horiz-adv-x="513" 
d="M287 510q-37 0 -61 27t-24 67q0 52 34 88t81 36q36 0 60.5 -27.5t24.5 -66.5q0 -51 -34 -87.5t-81 -36.5zM293 558q23 0 41 21t18 48q0 22 -11 36.5t-31 14.5q-23 0 -41.5 -20t-18.5 -46q0 -22 11.5 -38t31.5 -16zM264 741q-17 -8 -22 8l-7 18q-4 12 8 19l148 84
q4 4 13 2.5t12 -10.5l13 -33q6 -15 -8 -21zM451 443l-50 -426q-1 -17 -20 -17h-23q-13 0 -15 17l-4 29l-7 -6q-7 -6 -19.5 -14.5t-28 -16.5t-38 -14t-45.5 -6q-68 0 -113 59.5t-45 144.5q0 124 64.5 201.5t160.5 77.5q33 0 61.5 -12.5t40.5 -25.5l13 -12l15 29q4 11 15 11
h23q10 0 13 -4t2 -15zM340 130l27 221q-1 2 -3.5 6t-12 13.5t-20.5 16.5t-29.5 13t-38.5 6q-57 0 -101 -55t-44 -158q0 -54 27.5 -96t75.5 -42q33 0 62.5 18.5t42.5 37.5z" />
    <glyph glyph-name="AEacute" unicode="&#x1fc;" horiz-adv-x="814" 
d="M23 0h-48q-10 0 -12.5 8t4.5 18l452 643q12 18 20.5 24.5t23.5 6.5h345q7 0 11 -5.5t3 -13.5l-4 -29q-1 -8 -7 -13.5t-13 -5.5h-301l-35 -244h258q7 0 11 -5.5t3 -13.5l-4 -29q-1 -8 -7 -13.5t-13 -5.5h-257l-36 -255h302q7 0 11 -5.5t3 -13.5l-4 -29q-1 -8 -7 -13.5
t-13 -5.5h-356q-7 0 -11.5 5.5t-3.5 13.5l22 157h-205l-113 -165q-9 -11 -19 -11zM200 238h169l46 319zM596 780q-17 -8 -22 8l-7 18q-4 12 8 19l148 84q4 4 13 2.5t12 -10.5l13 -33q6 -15 -8 -21z" />
    <glyph glyph-name="aeacute" unicode="&#x1fd;" horiz-adv-x="710" 
d="M150 -11q-56 0 -92 34.5t-36 91.5q0 73 52 125t131 52q24 0 48 -3t35 -6l12 -3q14 73 4.5 100t-48.5 27q-51 0 -126 -25q-19 -6 -24 15l-6 26q-4 15 21 23q70 26 150 26q79 0 102 -72q60 72 153 72q68 0 106.5 -33t38.5 -87q0 -70 -63.5 -109.5t-180.5 -39.5q-32 0 -68 3
q-6 -59 26 -105t83 -46q46 0 101 36q22 14 34 -3l12 -17q10 -13 -8 -29q-66 -53 -155 -53q-85 0 -132 82q-30 -34 -76 -58t-94 -24zM370 266q32 -3 59 -3q79 0 124 21.5t45 63.5q0 25 -21.5 42t-59.5 17q-49 0 -92 -42.5t-55 -98.5zM206 232q-48 0 -80 -29.5t-32 -78.5
q0 -30 20 -49.5t54 -19.5q31 0 61 19t48 44l15 104q-30 10 -86 10zM383 557q-17 -8 -22 8l-7 18q-4 12 8 19l148 84q4 4 13 2.5t12 -10.5l13 -33q6 -15 -8 -21z" />
    <glyph glyph-name="Oslashacute" unicode="&#x1fe;" horiz-adv-x="761" 
d="M47 22q-10 14 3 26l64 62q-55 82 -55 185q0 73 28.5 147t77 133.5t120.5 97t153 37.5q123 0 205 -93l67 65q13 13 23 0l5 -5q9 -13 -4 -26l-67 -65q53 -80 53 -182q0 -74 -28 -147.5t-76.5 -133t-121 -96.5t-153.5 -37q-121 0 -202 89l-65 -62q-5 -5 -12 -4.5t-11 5.5z
M169 162l420 404q-63 74 -159 74q-121 0 -210 -104.5t-89 -231.5q0 -80 38 -142zM192 130q60 -70 157 -70q81 0 150.5 49.5t109 126.5t39.5 159q0 76 -36 139zM392 779q-17 -8 -22 8l-7 18q-4 12 8 19l148 84q4 4 13 2.5t12 -10.5l13 -33q6 -15 -8 -21z" />
    <glyph glyph-name="oslashacute" unicode="&#x1ff;" horiz-adv-x="519" 
d="M41 198q0 112 70.5 193t171.5 81q72 0 124 -59l28 27q17 15 29 0l5 -5q13 -16 -4 -31l-31 -30q28 -50 28 -109q0 -113 -71 -194.5t-172 -81.5q-73 0 -124 59l-21 -21q-15 -13 -28 0l-4 7q-6 6 -4.5 15t7.5 15l23 22q-27 52 -27 112zM111 204q0 -38 10 -67l236 228
q-33 41 -80 41q-66 0 -116 -59.5t-50 -142.5zM225 55q66 0 116 60.5t50 143.5q0 33 -11 63l-236 -227q32 -40 81 -40zM252 557q-17 -8 -22 8l-7 18q-4 12 8 19l148 84q4 4 13 2.5t12 -10.5l13 -33q6 -15 -8 -21z" />
    <glyph glyph-name="Scommaaccent" unicode="&#x218;" horiz-adv-x="500" 
d="M33 76q-13 14 2 29l16 17q18 18 32 5q2 -2 15 -14.5t18.5 -16.5t20 -13.5t26 -13.5t30 -8t38.5 -4q52 0 89 33t37 88q0 44 -30.5 76t-99.5 72q-68 39 -101 78.5t-33 103.5q0 34 11.5 67.5t35 64.5t68 50.5t102.5 19.5q88 0 155 -51q16 -13 1 -34l-11 -16q-15 -21 -33 -9
q-62 43 -119 43q-61 0 -97.5 -39t-36.5 -87q0 -40 25.5 -70t75.5 -57q86 -46 127.5 -90t41.5 -114q0 -86 -58.5 -141t-160.5 -55q-101 0 -187 86zM142 -125q0 24 18 39t43 15q27 0 42.5 -17t15.5 -49q0 -75 -63 -131q-7 -6 -15 0l-14 12q-9 8 2 17q39 37 39 75q0 7 -2 12
q-7 -7 -27 -7q-18 0 -28.5 9.5t-10.5 24.5z" />
    <glyph glyph-name="scommaaccent" unicode="&#x219;" horiz-adv-x="383" 
d="M154 -11q-70 0 -129 49q-11 11 -2 25l17 26q10 17 28 3q45 -37 95 -37q32 0 54 19.5t22 47.5q0 23 -18.5 42.5t-59.5 45.5q-34 21 -49.5 32.5t-33 37.5t-17.5 57q0 51 38.5 93t113.5 42q70 0 113 -34q15 -13 4 -33l-10 -19q-10 -18 -31 -6q-41 26 -83 26q-35 0 -52.5 -18
t-17.5 -42q0 -15 10.5 -29.5t21.5 -22t34 -22.5q29 -19 44 -29.5t34 -28.5t27 -39t8 -46q0 -57 -42.5 -98.5t-118.5 -41.5zM92 -125q0 24 18 39t43 15q27 0 42.5 -17t15.5 -49q0 -75 -63 -131q-7 -6 -15 0l-14 12q-9 8 2 17q39 37 39 75q0 7 -2 12q-7 -7 -27 -7
q-18 0 -28.5 9.5t-10.5 24.5z" />
    <glyph glyph-name="uni021A" unicode="&#x21a;" horiz-adv-x="476" 
d="M162 19l86 614h-153q-7 0 -11.5 5.5t-2.5 13.5l4 29q1 7 6.5 13t12.5 6h384q7 0 11.5 -5.5t2.5 -13.5l-4 -29q-1 -8 -7 -13.5t-13 -5.5h-153l-86 -614q-4 -19 -20 -19h-42q-7 0 -11.5 5.5t-3.5 13.5zM121 -125q0 24 18 39t43 15q27 0 42.5 -17t15.5 -49q0 -75 -63 -131
q-7 -6 -15 0l-14 12q-9 8 2 17q39 37 39 75q0 7 -2 12q-7 -7 -27 -7q-18 0 -28.5 9.5t-10.5 24.5z" />
    <glyph glyph-name="uni021B" unicode="&#x21b;" horiz-adv-x="355" 
d="M171 -11q-52 0 -77 35.5t-17 90.5l40 282h-52q-9 0 -14.5 6.5t-3.5 15.5l4 21q7 22 22 22h55l17 128q3 20 23 22l36 2q7 1 12.5 -6t3.5 -16l-18 -130h118q19 0 17 -22l-3 -21q-1 -9 -8 -15.5t-15 -6.5h-119l-41 -285q-4 -31 6 -42t30 -11q33 0 73 32q17 14 27 -9l11 -25
q7 -16 -12 -30q-49 -38 -115 -38zM88 -125q0 24 18 39t43 15q27 0 42.5 -17t15.5 -49q0 -75 -63 -131q-7 -6 -15 0l-14 12q-9 8 2 17q39 37 39 75q0 7 -2 12q-7 -7 -27 -7q-18 0 -28.5 9.5t-10.5 24.5z" />
    <glyph glyph-name="dotlessj" unicode="&#x237;" horiz-adv-x="232" 
d="M175 440l-69 -490q-25 -170 -158 -198q-16 -3 -19 12l-7 32q-4 20 18 27q40 14 61.5 39t29.5 81l70 497q1 10 8.5 16t16.5 6h30q9 0 14.5 -6.5t4.5 -15.5z" />
    <glyph glyph-name="circumflex" unicode="&#x2c6;" horiz-adv-x="336" 
d="M71 554l-9 18q-8 16 5 24l119 94q9 7 18 7h3q9 0 19 -12l84 -91q8 -9 -2 -19l-14 -15q-12 -12 -21 -4l-78 66l-102 -71q-15 -11 -22 3z" />
    <glyph glyph-name="caron" unicode="&#x2c7;" horiz-adv-x="336" 
d="M180 544q-9 0 -19 12l-84 91q-8 9 2 19l14 15q12 12 21 4l78 -66l102 71q15 11 22 -3l9 -18q8 -15 -5 -24l-119 -94q-9 -7 -18 -7h-3z" />
    <glyph glyph-name="uni02C9" unicode="&#x2c9;" horiz-adv-x="373" 
d="M93 583q-17 0 -15 18l3 21q3 19 20 19h231q7 0 11 -5.5t3 -13.5l-3 -21q-2 -18 -20 -18h-230z" />
    <glyph glyph-name="breve" unicode="&#x2d8;" horiz-adv-x="311" 
d="M172 531q-44 0 -75.5 33t-30.5 81q0 20 16 20h19q13 0 15 -17q10 -64 62 -64q23 0 44.5 18.5t33.5 45.5q8 17 19 17h25q17 0 10 -20q-15 -50 -51.5 -82t-86.5 -32z" />
    <glyph glyph-name="dotaccent" unicode="&#x2d9;" horiz-adv-x="197" 
d="M118 568q-21 0 -35 13.5t-14 33.5q0 26 19.5 44.5t44.5 18.5q20 0 33.5 -13.5t13.5 -33.5q0 -25 -18.5 -44t-43.5 -19z" />
    <glyph glyph-name="ring" unicode="&#x2da;" horiz-adv-x="261" 
d="M140 492q-37 0 -61 27t-24 67q0 52 34 88t81 36q36 0 60.5 -27.5t24.5 -66.5q0 -51 -34 -87.5t-81 -36.5zM146 540q23 0 41 21t18 48q0 22 -11 36.5t-31 14.5q-23 0 -41.5 -20t-18.5 -46q0 -22 11.5 -38t31.5 -16z" />
    <glyph glyph-name="ogonek" unicode="&#x2db;" horiz-adv-x="276" 
d="M215 3q-128 -71 -128 -145q0 -42 44 -42q28 0 67 26q6 5 11 3.5t4 -8.5l-4 -36q-2 -16 -15 -24q-39 -21 -83 -21q-42 0 -65.5 24t-23.5 61q0 55 34.5 94t93.5 74z" />
    <glyph glyph-name="tilde" unicode="&#x2dc;" horiz-adv-x="342" 
d="M80 575l-16 8q-11 7 -4 23q6 15 15 31t31.5 34.5t48.5 18.5q23 0 39 -18t27.5 -36t24.5 -18q25 0 42 47q8 21 25 11l14 -8q13 -8 7 -23q-9 -28 -33 -56.5t-60 -28.5q-16 0 -30.5 11.5t-22.5 25t-18.5 25t-19.5 11.5q-12 0 -22.5 -10.5t-14 -17.5t-9.5 -22q-3 -7 -10 -9.5
t-14 1.5z" />
    <glyph glyph-name="hungarumlaut" unicode="&#x2dd;" horiz-adv-x="353" 
d="M225 521q-7 0 -11 6t-1 13l63 141q8 19 20 19h40q12 0 15.5 -7.5t-2.5 -17.5l-90 -139q-9 -15 -19 -15h-15zM76 521q-7 0 -11 6t-1 13l63 141q8 19 20 19h40q12 0 15.5 -7.5t-2.5 -17.5l-90 -139q-9 -15 -19 -15h-15z" />
    <glyph glyph-name="uni0394" unicode="&#x394;" horiz-adv-x="651" 
d="M22 0q-34 0 -11 39l362 662q5 9 14 9h5q8 0 10 -9l175 -664q7 -37 -23 -37h-532zM109 71h381l-117 491h-2z" />
    <glyph glyph-name="uni03A9" unicode="&#x3a9;" horiz-adv-x="767" 
d="M51 0q-13 0 -11 15l5 41q1 6 6 10.5t10 4.5h102q-46 38 -72 97.5t-26 129.5q0 73 28 146.5t75.5 132.5t119.5 96t153 37q117 0 198.5 -88t81.5 -218q0 -98 -45.5 -191t-128.5 -142h100q13 0 11 -15l-5 -41q-2 -15 -16 -15h-224q-12 0 -10 15l4 29q2 15 18 22
q98 34 161.5 127t63.5 201q0 104 -61.5 174.5t-155.5 70.5q-81 0 -150.5 -50.5t-107.5 -128t-38 -159.5q0 -83 38.5 -147t106.5 -88q14 -4 11 -22l-4 -29q-2 -15 -14 -15h-224z" />
    <glyph glyph-name="uni03BC" unicode="&#x3bc;" horiz-adv-x="503" 
d="M199 -11q-45 0 -74 17l-31 -222q-2 -9 -8 -15.5t-14 -6.5h-35q-8 0 -13 6.5t-4 15.5l91 656q2 8 9 15t14 7h35q8 0 13.5 -7t4.5 -15l-35 -250q-9 -69 5 -102t60 -33q15 0 29.5 4t25.5 11t21.5 14.5t18 15.5t13 15t8.5 11l3 4l45 310q1 8 8 15t15 7h33q8 0 13.5 -7
t4.5 -15l-59 -418q-2 -22 -23 -22h-20q-13 0 -16 20l-4 29l-3 -4q-4 -4 -10 -9t-14 -11.5t-19.5 -12.5t-24.5 -11.5t-29.5 -8.5t-33.5 -3z" />
    <glyph glyph-name="pi" unicode="&#x3c0;" horiz-adv-x="617" 
d="M117 0q-7 0 -11 5t-3 12l53 380h-99q-14 0 -12 16l4 32q2 17 18 17h534q15 0 13 -16l-5 -34q-2 -15 -17 -15h-102l-53 -380q-3 -17 -19 -17h-45q-14 0 -12 17l53 380h-182l-53 -380q-3 -17 -19 -17h-43z" />
    <glyph glyph-name="Wgrave" unicode="&#x1e80;" horiz-adv-x="818" 
d="M166 4l-75 672q-1 10 4.5 17t14.5 7h42q13 0 15 -14l47 -516h3l224 529q5 11 17 11h16q12 0 14 -11l77 -529h3l191 516q6 14 18 14h48q10 0 13.5 -7t-0.5 -17l-265 -672q-5 -14 -18 -14h-14q-12 0 -14 11l-81 539h-4l-230 -539q-5 -11 -17 -11h-14q-13 0 -15 14zM540 783
l-132 64q-17 8 -7 24l21 34q10 14 24 3l125 -84q11 -6 3 -19l-12 -20q-6 -10 -22 -2z" />
    <glyph glyph-name="wgrave" unicode="&#x1e81;" horiz-adv-x="655" 
d="M122 1l-59 442q-3 19 18 19h35q17 0 19 -16l34 -295h3l162 311q6 12 20 12h6q13 0 15 -12l67 -311h3l118 295q7 16 23 16h29q26 0 17 -23l-178 -438q-7 -12 -19 -12h-6q-14 0 -16 12l-73 338h-3l-175 -338q-6 -12 -19 -12h-5q-14 0 -16 12zM420 562l-132 64q-17 8 -7 24
l21 34q10 14 24 3l125 -84q11 -6 3 -19l-12 -20q-6 -10 -22 -2z" />
    <glyph glyph-name="Wacute" unicode="&#x1e82;" horiz-adv-x="818" 
d="M166 4l-75 672q-1 10 4.5 17t14.5 7h42q13 0 15 -14l47 -516h3l224 529q5 11 17 11h16q12 0 14 -11l77 -529h3l191 516q6 14 18 14h48q10 0 13.5 -7t-0.5 -17l-265 -672q-5 -14 -18 -14h-14q-12 0 -14 11l-81 539h-4l-230 -539q-5 -11 -17 -11h-14q-13 0 -15 14zM419 779
q-17 -8 -22 8l-7 18q-4 12 8 19l148 84q4 4 13 2.5t12 -10.5l13 -33q6 -15 -8 -21z" />
    <glyph glyph-name="wacute" unicode="&#x1e83;" horiz-adv-x="655" 
d="M122 1l-59 442q-3 19 18 19h35q17 0 19 -16l34 -295h3l162 311q6 12 20 12h6q13 0 15 -12l67 -311h3l118 295q7 16 23 16h29q26 0 17 -23l-178 -438q-7 -12 -19 -12h-6q-14 0 -16 12l-73 338h-3l-175 -338q-6 -12 -19 -12h-5q-14 0 -16 12zM319 557q-17 -8 -22 8l-7 18
q-4 12 8 19l148 84q4 4 13 2.5t12 -10.5l13 -33q6 -15 -8 -21z" />
    <glyph glyph-name="Wdieresis" unicode="&#x1e84;" horiz-adv-x="818" 
d="M166 4l-75 672q-1 10 4.5 17t14.5 7h42q13 0 15 -14l47 -516h3l224 529q5 11 17 11h16q12 0 14 -11l77 -529h3l191 516q6 14 18 14h48q10 0 13.5 -7t-0.5 -17l-265 -672q-5 -14 -18 -14h-14q-12 0 -14 11l-81 539h-4l-230 -539q-5 -11 -17 -11h-14q-13 0 -15 14zM576 788
q-20 0 -31.5 12.5t-11.5 32.5q0 24 17 41t39 17q19 0 31.5 -13t12.5 -33q0 -23 -17.5 -40t-39.5 -17zM381 788q-20 0 -31.5 12.5t-11.5 32.5q0 24 17 41t39 17q19 0 31.5 -13t12.5 -33q0 -23 -17.5 -40t-39.5 -17z" />
    <glyph glyph-name="wdieresis" unicode="&#x1e85;" horiz-adv-x="655" 
d="M122 1l-59 442q-3 19 18 19h35q17 0 19 -16l34 -295h3l162 311q6 12 20 12h6q13 0 15 -12l67 -311h3l118 295q7 16 23 16h29q26 0 17 -23l-178 -438q-7 -12 -19 -12h-6q-14 0 -16 12l-73 338h-3l-175 -338q-6 -12 -19 -12h-5q-14 0 -16 12zM454 581q-20 0 -31.5 12.5
t-11.5 32.5q0 24 17 41t39 17q20 0 32 -13t12 -33q0 -23 -17 -40t-40 -17zM279 581q-19 0 -31 12.5t-12 32.5q0 24 17 41t40 17q19 0 31 -13t12 -33q0 -23 -17 -40t-40 -17z" />
    <glyph glyph-name="Ygrave" unicode="&#x1ef2;" horiz-adv-x="536" 
d="M190 19l45 318l-170 339q-5 9 -0.5 16.5t14.5 7.5h46q9 0 14 -9l139 -285h2l222 285q7 9 16 9h48q11 0 14 -9.5t-4 -19.5l-264 -333l-45 -319q-1 -7 -7 -13t-13 -6h-42q-7 0 -11.5 5.5t-3.5 13.5zM393 783l-132 64q-17 8 -7 24l21 34q10 14 24 3l125 -84q11 -6 3 -19
l-12 -20q-6 -10 -22 -2z" />
    <glyph glyph-name="ygrave" unicode="&#x1ef3;" horiz-adv-x="485" 
d="M164 0l-112 437q-3 11 2.5 18t16.5 7h37q13 0 16 -13l85 -369h3l188 369q6 13 20 13h41q11 0 15.5 -7.5t-1.5 -18.5l-352 -660q-7 -14 -20 -14h-43q-12 0 -15 7t3 19zM315 562l-132 64q-17 8 -7 24l21 34q10 14 24 3l125 -84q11 -6 3 -19l-12 -20q-6 -10 -22 -2z" />
    <glyph glyph-name="endash" unicode="&#x2013;" horiz-adv-x="505" 
d="M76 223q-8 0 -12 5.5t-3 12.5l2 11q3 19 20 19h335q18 0 15 -19l-2 -11q-4 -18 -19 -18h-336z" />
    <glyph glyph-name="emdash" unicode="&#x2014;" horiz-adv-x="703" 
d="M76 223q-8 0 -12 5.5t-3 12.5l2 11q3 19 20 19h533q18 0 15 -19l-2 -11q-4 -18 -19 -18h-534z" />
    <glyph glyph-name="quoteleft" unicode="&#x2018;" horiz-adv-x="232" 
d="M212 496q0 -27 -18 -47.5t-46 -20.5q-30 0 -46 23t-16 60q0 108 94 194q9 9 16 1l16 -17q7 -8 -3 -18q-72 -68 -72 -128q0 -7 1 -14q14 9 33 9q20 0 30.5 -12.5t10.5 -29.5z" />
    <glyph glyph-name="quoteright" unicode="&#x2019;" horiz-adv-x="230" 
d="M98 642q0 27 18 47.5t46 20.5q30 0 46 -23t16 -60q0 -108 -94 -194q-9 -9 -16 -1l-16 17q-7 8 3 18q72 68 72 128q0 7 -1 14q-14 -9 -33 -9q-20 0 -30.5 12.5t-10.5 29.5z" />
    <glyph glyph-name="quotesinglbase" unicode="&#x201a;" horiz-adv-x="237" 
d="M23 42q0 27 18 47.5t46 20.5q30 0 46 -23t16 -60q0 -108 -94 -194q-9 -9 -16 -1l-16 17q-7 8 3 18q72 68 72 128q0 7 -1 14q-14 -9 -33 -9q-20 0 -30.5 12.5t-10.5 29.5z" />
    <glyph glyph-name="quotedblleft" unicode="&#x201c;" horiz-adv-x="411" 
d="M212 496q0 -27 -18 -47.5t-46 -20.5q-30 0 -46 23t-16 60q0 108 94 194q9 9 16 1l16 -17q7 -8 -3 -18q-72 -68 -72 -128q0 -7 1 -14q14 9 33 9q20 0 30.5 -12.5t10.5 -29.5zM391 496q0 -27 -18 -47.5t-46 -20.5q-30 0 -46 23t-16 60q0 108 94 194q9 9 16 1l16 -17
q7 -8 -3 -18q-72 -68 -72 -128q0 -7 1 -14q14 9 33 9q20 0 30.5 -12.5t10.5 -29.5z" />
    <glyph glyph-name="quotedblright" unicode="&#x201d;" horiz-adv-x="408" 
d="M98 642q0 27 18 47.5t46 20.5q30 0 46 -23t16 -60q0 -108 -94 -194q-9 -9 -16 -1l-16 17q-7 8 3 18q72 68 72 128q0 7 -1 14q-14 -9 -33 -9q-20 0 -30.5 12.5t-10.5 29.5zM276 642q0 27 18 47.5t46 20.5q30 0 46 -23t16 -60q0 -108 -94 -194q-9 -9 -16 -1l-16 17
q-7 8 3 18q72 68 72 128q0 7 -1 14q-14 -9 -33 -9q-20 0 -30.5 12.5t-10.5 29.5z" />
    <glyph glyph-name="quotedblbase" unicode="&#x201e;" horiz-adv-x="415" 
d="M23 42q0 27 18 47.5t46 20.5q30 0 46 -23t16 -60q0 -108 -94 -194q-9 -9 -16 -1l-16 17q-7 8 3 18q72 68 72 128q0 7 -1 14q-14 -9 -33 -9q-20 0 -30.5 12.5t-10.5 29.5zM201 42q0 27 18 47.5t46 20.5q30 0 46 -23t16 -60q0 -108 -94 -194q-9 -9 -16 -1l-16 17q-7 8 3 18
q72 68 72 128q0 7 -1 14q-14 -9 -33 -9q-20 0 -30.5 12.5t-10.5 29.5z" />
    <glyph glyph-name="dagger" unicode="&#x2020;" horiz-adv-x="541" 
d="M175 -222l60 556h-174q-7 0 -11 5.5t-3 13.5l4 28q1 7 6.5 13t12.5 6h172l40 281q1 7 6.5 13t12.5 6h52q7 0 11 -6t3 -13l-39 -281h175q7 0 11 -5.5t3 -13.5l-4 -28q-1 -7 -6.5 -13t-12.5 -6h-178l-95 -556q-1 -6 -7 -11t-13 -5h-11q-6 0 -11 5t-4 11z" />
    <glyph glyph-name="daggerdbl" unicode="&#x2021;" horiz-adv-x="555" 
d="M34 19l4 28q1 7 6.5 13t12.5 6h154l38 334h-172q-7 0 -11 5.5t-3 13.5l4 28q1 7 7 13t13 6h171l31 215q1 7 6.5 13t12.5 6h52q7 0 11 -6t3 -13l-30 -215h175q7 0 11 -5.5t3 -13.5l-4 -28q-1 -7 -6.5 -13t-12.5 -6h-175l-56 -334h157q7 0 11 -5.5t3 -13.5l-4 -28
q-1 -7 -6.5 -13t-12.5 -6h-160l-39 -222q-1 -6 -7 -11t-13 -5h-11q-6 0 -11 5t-4 11l22 222h-156q-7 0 -11 5.5t-3 13.5z" />
    <glyph glyph-name="bullet" unicode="&#x2022;" horiz-adv-x="354" 
d="M156 149q-36 0 -60 27t-24 65q0 49 35 85.5t79 36.5q38 0 62.5 -27.5t24.5 -67.5q0 -48 -35.5 -83.5t-81.5 -35.5z" />
    <glyph glyph-name="ellipsis" unicode="&#x2026;" horiz-adv-x="575" 
d="M380 40q0 26 19 45t43 19q20 0 33 -14t13 -35q0 -26 -18.5 -45.5t-43.5 -19.5q-20 0 -33 14.5t-13 35.5zM200 40q0 26 19 45t43 19q20 0 33 -14.5t13 -35.5q0 -26 -18.5 -45t-43.5 -19q-19 0 -32.5 15t-13.5 35zM23 40q0 26 18.5 45t43.5 19q20 0 33 -14.5t13 -35.5
q0 -26 -18.5 -45t-43.5 -19q-20 0 -33 14.5t-13 35.5z" />
    <glyph glyph-name="perthousand" unicode="&#x2030;" horiz-adv-x="897" 
d="M192 440q-42 0 -73 34.5t-31 82.5q0 64 41 108.5t101 44.5q43 0 73.5 -34t30.5 -83q0 -63 -42 -108t-100 -45zM91 27l402 663q6 10 16 10h24q10 0 13.5 -8.5t-2.5 -18.5l-404 -663q-5 -10 -16 -10h-22q-10 0 -13.5 8.5t2.5 18.5zM200 497q30 0 53 26t23 62
q0 27 -15.5 46.5t-38.5 19.5q-31 0 -54.5 -26t-23.5 -62q0 -28 16 -47t40 -19zM589 107q0 64 41 108.5t101 44.5q43 0 73.5 -34t30.5 -83q0 -63 -42.5 -108t-99.5 -45q-42 0 -73 34.5t-31 82.5zM311 107q0 64 41 108.5t101 44.5q43 0 73.5 -34t30.5 -83q0 -63 -42.5 -108
t-99.5 -45q-42 0 -73 34.5t-31 82.5zM645 113q0 -28 16 -47t40 -19q30 0 53 26t23 62q0 27 -15.5 46.5t-38.5 19.5q-31 0 -54.5 -26t-23.5 -62zM367 113q0 -28 16 -47t40 -19q30 0 53 26t23 62q0 27 -15.5 46.5t-38.5 19.5q-31 0 -54.5 -26t-23.5 -62z" />
    <glyph glyph-name="guilsinglleft" unicode="&#x2039;" horiz-adv-x="260" 
d="M117 69l-72 155q-6 11 3 24l114 148q10 12 20 12h22q11 0 13.5 -9.5t-4.5 -21.5l-86 -144l39 -142q3 -13 -1.5 -21.5t-16.5 -8.5h-18q-9 0 -13 8z" />
    <glyph glyph-name="guilsinglright" unicode="&#x203a;" horiz-adv-x="260" 
d="M42 61q-11 0 -13.5 9.5t4.5 21.5l86 144l-39 142q-3 13 1.5 21.5t16.5 8.5h18q9 0 13 -8l72 -155q6 -11 -3 -24l-114 -148q-10 -12 -20 -12h-22z" />
    <glyph glyph-name="fraction" unicode="&#x2044;" horiz-adv-x="140" 
d="M-98 10q-5 -10 -16 -10h-22q-10 0 -13.5 8.5t2.5 18.5l402 663q6 10 16 10h24q10 0 13.5 -8.5t-2.5 -18.5z" />
    <glyph glyph-name="zerosuperior" unicode="&#x2070;" horiz-adv-x="307" 
d="M184 494q-43 0 -68.5 33t-25.5 89q0 89 35.5 141t100.5 52q43 0 68.5 -33t25.5 -89q0 -89 -35.5 -141t-100.5 -52zM190 542q35 0 55.5 38.5t20.5 102.5q0 78 -46 78q-35 0 -55.5 -39t-20.5 -103q0 -77 46 -77z" />
    <glyph glyph-name="foursuperior" unicode="&#x2074;" horiz-adv-x="296" 
d="M207 504q-3 0 -6 2.5t-2 6.5l7 50h-133q-8 0 -6 9l4 29l181 196q3 3 7 3h22q3 0 6 -2.5t2 -6.5l-26 -185h36q7 0 7 -8l-3 -26q-2 -8 -10 -8h-36l-7 -51q-2 -9 -11 -9h-32zM133 607h81l16 111z" />
    <glyph glyph-name="fivesuperior" unicode="&#x2075;" horiz-adv-x="272" 
d="M164 494q-59 0 -86 38q-5 10 1 15l19 19q7 5 11 0q2 -3 9 -8.5t22 -11.5t29 -6q26 0 45 20t19 45q0 20 -13 33t-37 13h-69q-14 0 -12 16l18 124q2 9 9 9h141q9 0 7 -9l-4 -27q0 -8 -9 -8h-103l-9 -60h42q42 0 66 -24t24 -59q0 -51 -33 -85t-87 -34z" />
    <glyph glyph-name="sixsuperior" unicode="&#x2076;" horiz-adv-x="275" 
d="M170 494q-40 0 -63.5 30.5t-23.5 71.5q0 42 15 78.5t35 59t47 41.5t44 27t33 13q9 3 11 -6l6 -23q3 -10 -10 -13q-23 -5 -62 -33t-53 -61q23 17 58 17q33 0 56 -22.5t23 -63.5q0 -47 -34.5 -81.5t-81.5 -34.5zM177 541q24 0 42 20t18 46q0 20 -13 33.5t-32 13.5t-36 -11
t-25 -23q-3 -28 8.5 -53.5t37.5 -25.5z" />
    <glyph glyph-name="sevensuperior" unicode="&#x2077;" horiz-adv-x="251" 
d="M85 504q-8 0 -7 7l1 7l151 237h-123q-9 0 -7 9l4 27q1 9 9 9h181q9 0 7 -9l-2 -11l-164 -267q-6 -9 -14 -9h-36z" />
    <glyph glyph-name="eightsuperior" unicode="&#x2078;" horiz-adv-x="280" 
d="M168 494q-40 0 -64 22t-24 55q0 30 22 53t41 32v2q-13 7 -24 23.5t-11 37.5q0 40 30.5 65.5t74.5 25.5q37 0 60.5 -20t23.5 -53q0 -50 -56 -79v-2q16 -8 29 -26t13 -41q0 -40 -32 -67.5t-83 -27.5zM195 680q49 10 49 50q0 16 -10.5 26.5t-26.5 10.5q-19 0 -33 -14
t-14 -34q0 -32 35 -39zM175 537q23 0 39 13.5t16 35.5q0 16 -11 29t-31 17q-24 -6 -39 -22t-15 -34q0 -17 12 -28t29 -11z" />
    <glyph glyph-name="ninesuperior" unicode="&#x2079;" horiz-adv-x="275" 
d="M121 487q-9 -3 -11 6l-6 23q-3 10 10 13q23 5 62 33t53 61q-23 -17 -58 -17q-33 0 -56 22.5t-23 63.5q0 47 34.5 81.5t81.5 34.5q40 0 63.5 -30.5t23.5 -71.5q0 -52 -20.5 -94t-53.5 -67.5t-55.5 -38t-44.5 -19.5zM186 648q19 0 36 11t25 23q3 28 -8.5 53.5t-37.5 25.5
q-24 0 -42 -20t-18 -46q0 -20 13 -33.5t32 -13.5z" />
    <glyph glyph-name="zeroinferior" unicode="&#x2080;" horiz-adv-x="307" 
d="M-2 -38q0 89 35.5 141t100.5 52q43 0 68.5 -33t25.5 -89q0 -89 -35.5 -141t-100.5 -52q-43 0 -68.5 33t-25.5 89zM52 -35q0 -77 46 -77q35 0 55.5 38.5t20.5 102.5q0 78 -46 78q-35 0 -55.5 -39t-20.5 -103z" />
    <glyph glyph-name="oneinferior" unicode="&#x2081;" horiz-adv-x="182" 
d="M2 62l-2 20q0 7 5 11l71 53h29q9 0 7 -9l-40 -278q-2 -9 -9 -9h-35q-10 0 -8 9l29 210l-39 -11q-8 -2 -8 4z" />
    <glyph glyph-name="twoinferior" unicode="&#x2082;" horiz-adv-x="268" 
d="M31 79l-14 18q-5 8 1 14q45 45 92 45q39 0 63 -22t24 -55q0 -45 -57 -102l-80 -83h103q8 0 6 -10l-3 -25q-2 -9 -9 -9h-175q-9 0 -8 9l2 16l129 131q38 41 38 62q0 16 -11 28.5t-32 12.5q-25 0 -57 -30q-7 -5 -12 0z" />
    <glyph glyph-name="threeinferior" unicode="&#x2083;" horiz-adv-x="269" 
d="M33 -13l3 25q2 9 11 9h28q29 0 45.5 14.5t16.5 35.5q0 17 -12 28t-29 11q-24 0 -51 -27q-7 -5 -12 0l-16 21q-2 2 -2 6t4 6q39 40 89 40q37 0 60.5 -20t23.5 -53q0 -27 -18.5 -49t-39.5 -31v-2q16 -7 30.5 -25.5t14.5 -41.5q0 -39 -33.5 -66.5t-82.5 -27.5q-59 0 -86 41
q-6 6 3 11l18 20q8 5 12 -1q26 -26 56 -26q24 0 41.5 14.5t17.5 36.5q0 18 -14 30t-42 12h-28q-9 0 -8 9z" />
    <glyph glyph-name="fourinferior" unicode="&#x2084;" horiz-adv-x="296" 
d="M-21 -53l181 196q3 3 7 3h22q3 0 6 -2.5t2 -6.5l-26 -185h36q7 0 7 -8l-3 -26q-2 -8 -10 -8h-36l-7 -51q-2 -9 -11 -9h-32q-3 0 -6 2.5t-2 6.5l7 50h-133q-8 0 -6 9zM41 -47h81l16 111z" />
    <glyph glyph-name="fiveinferior" unicode="&#x2085;" horiz-adv-x="272" 
d="M10 13l18 124q2 9 9 9h141q9 0 7 -9l-4 -27q0 -8 -9 -8h-103l-9 -60h42q42 0 66 -24t24 -59q0 -51 -33 -85t-87 -34q-59 0 -86 38q-5 10 1 15l19 19q7 5 11 0q2 -3 9 -8.5t22 -11.5t29 -6q26 0 45 20t19 45q0 20 -13 33t-37 13h-69q-14 0 -12 16z" />
    <glyph glyph-name="sixinferior" unicode="&#x2086;" horiz-adv-x="276" 
d="M-9 -58q0 42 15 78.5t35 59t47 41.5t44 27t33 13q9 3 11 -6l6 -23q3 -10 -10 -13q-23 -5 -62 -33t-53 -61q23 17 58 17q33 0 56 -22.5t23 -63.5q0 -47 -34.5 -81.5t-81.5 -34.5q-40 0 -63.5 30.5t-23.5 71.5zM39 -34q-3 -28 8.5 -53.5t37.5 -25.5q24 0 42 20t18 46
q0 20 -13 33.5t-32 13.5t-36 -11t-25 -23z" />
    <glyph glyph-name="seveninferior" unicode="&#x2087;" horiz-adv-x="252" 
d="M15 101q-9 0 -7 9l4 27q1 9 9 9h181q9 0 7 -9l-2 -11l-164 -267q-6 -9 -14 -9h-36q-8 0 -7 7l1 7l151 237h-123z" />
    <glyph glyph-name="eightinferior" unicode="&#x2088;" horiz-adv-x="280" 
d="M16 65q0 40 30.5 65.5t74.5 25.5q37 0 60.5 -20t23.5 -53q0 -50 -56 -79v-2q16 -8 29 -26t13 -41q0 -40 -32 -67.5t-83 -27.5q-40 0 -64 22t-24 55q0 30 22 53t41 32v2q-13 7 -24 23.5t-11 37.5zM68 65q0 -32 35 -39q49 10 49 50q0 16 -10.5 26.5t-26.5 10.5
q-19 0 -33 -14t-14 -34zM42 -78q0 -17 12 -28t29 -11q23 0 39 13.5t16 35.5q0 16 -11 29t-31 17q-24 -6 -39 -22t-15 -34z" />
    <glyph glyph-name="nineinferior" unicode="&#x2089;" horiz-adv-x="275" 
d="M0 38q0 47 34.5 81.5t81.5 34.5q40 0 63.5 -30.5t23.5 -71.5q0 -52 -20.5 -94t-53.5 -67.5t-55.5 -38t-44.5 -19.5q-9 -3 -11 6l-6 23q-3 10 10 13q23 5 62 33t53 61q-23 -17 -58 -17q-33 0 -56 22.5t-23 63.5zM49 41q0 -20 13 -33.5t32 -13.5t36 11t25 23
q3 28 -8.5 53.5t-37.5 25.5q-24 0 -42 -20t-18 -46z" />
    <glyph glyph-name="Euro" unicode="&#x20ac;" 
d="M408 253h-230q5 -87 43 -138.5t103 -51.5q52 0 84 14t77 49q15 13 25 0l22 -29q11 -14 -5 -28q-95 -79 -207 -79q-98 0 -159.5 71.5t-64.5 191.5h-55q-17 0 -15 17l1 9q1 8 7 13.5t13 5.5h49q2 39 9 75h-47q-8 0 -12.5 5t-3.5 12l1 9q1 7 7 13t14 6h51
q34 127 113.5 209.5t192.5 82.5q116 0 179 -78q11 -13 -2 -28l-22 -25q-15 -17 -32 1q-53 58 -129 58t-133.5 -62.5t-84.5 -157.5h274q19 0 16 -17l-2 -11q-3 -17 -20 -17h-279q-9 -46 -9 -75h237q8 0 13 -5t4 -12l-2 -10q-4 -18 -21 -18z" />
    <glyph glyph-name="afii61289" unicode="&#x2113;" horiz-adv-x="435" 
d="M179 -10q-60 0 -84.5 45.5t-15.5 112.5q3 21 16 72q-29 -10 -49 -13q-7 -1 -9.5 2t-2.5 12l-1 17q-2 16 14 19q40 7 65 16l29 94q54 175 107 259.5t124 84.5q38 0 59.5 -30t21.5 -75q0 -9 -2 -27q-34 -237 -301 -343q-19 -58 -23 -86q-16 -110 59 -110q74 0 148 45
q13 9 18 -3l7 -16q5 -10 -6 -20q-8 -7 -26.5 -18t-61.5 -24.5t-86 -13.5zM166 292q95 42 159 114.5t77 172.5q2 16 2 23q0 58 -39 58q-47 0 -87.5 -74t-89.5 -227z" />
    <glyph glyph-name="uni2117" unicode="&#x2117;" horiz-adv-x="782" 
d="M73 303q0 166 111.5 286.5t264.5 120.5q116 0 197.5 -92t81.5 -221q0 -167 -111.5 -287t-264.5 -120q-115 0 -197 92t-82 221zM130 310q0 -108 65 -184t163 -76q124 0 218 101t94 239q0 109 -64.5 184t-163.5 75q-123 0 -217.5 -100.5t-94.5 -238.5zM356 307l-16 -120
q-1 -8 -7 -13.5t-13 -5.5h-27q-16 0 -14 19l46 328q1 8 6.5 13.5t12.5 5.5h128q40 0 68.5 -26t28.5 -71q0 -54 -35 -92t-92 -38h-86zM364 365h85q27 0 45 18t18 49q0 22 -12.5 34.5t-34.5 12.5h-85z" />
    <glyph glyph-name="trademark" unicode="&#x2122;" horiz-adv-x="698" 
d="M340 398q-9 0 -13 7t-1 16l84 269q6 15 20 15h3q12 0 14 -11l44 -212l105 212q4 11 17 11h3q13 0 15 -15l10 -270q0 -9 -6 -15.5t-14 -6.5h-15q-15 0 -15 17l-6 165l-88 -176q-4 -9 -16 -9h-5q-12 0 -14 10l-37 175l-53 -166q-6 -16 -20 -16h-12zM180 398q-7 0 -11.5 5.5
t-2.5 13.5l33 234h-63q-7 0 -11 5.5t-3 13.5l2 11q4 19 19 19h174q7 0 12 -5.5t3 -13.5l-2 -11q-3 -19 -20 -19h-62l-33 -234q-1 -7 -6.5 -13t-12.5 -6h-16z" />
    <glyph glyph-name="Omega" unicode="&#x2126;" horiz-adv-x="767" 
d="M51 0q-13 0 -11 15l5 41q1 6 6 10.5t10 4.5h102q-46 38 -72 97.5t-26 129.5q0 73 28 146.5t75.5 132.5t119.5 96t153 37q117 0 198.5 -88t81.5 -218q0 -98 -45.5 -191t-128.5 -142h100q13 0 11 -15l-5 -41q-2 -15 -16 -15h-224q-12 0 -10 15l4 29q2 15 18 22
q98 34 161.5 127t63.5 201q0 104 -61.5 174.5t-155.5 70.5q-81 0 -150.5 -50.5t-107.5 -128t-38 -159.5q0 -83 38.5 -147t106.5 -88q14 -4 11 -22l-4 -29q-2 -15 -14 -15h-224z" />
    <glyph glyph-name="estimated" unicode="&#x212e;" horiz-adv-x="767" 
d="M153 158q28 -57 83 -89.5t122 -32.5q102 0 203 87q13 13 21 1l11 -15q7 -9 -6 -22q-108 -98 -235 -98q-119 0 -200 87.5t-81 218.5q0 74 28.5 148t77.5 133.5t121.5 97t154.5 37.5q120 0 200.5 -88t80.5 -220q0 -18 -4 -54q-3 -24 -20 -24h-534zM182 371h448l24 168
q-30 59 -84 91.5t-124 32.5q-140 0 -240 -122z" />
    <glyph glyph-name="onethird" unicode="&#x2153;" horiz-adv-x="585" 
d="M56 27l402 663q6 10 16 10h24q10 0 13.5 -8.5t-2.5 -18.5l-404 -663q-5 -10 -16 -10h-22q-10 0 -13.5 8.5t2.5 18.5zM125 404q-10 0 -8 9l29 210l-39 -11q-8 -2 -8 4l-2 20q0 7 5 11l71 53h29q9 0 7 -9l-40 -278q-2 -9 -9 -9h-35zM303 31q-6 6 3 11l18 20q8 5 12 -1
q26 -26 56 -26q24 0 41.5 14.5t17.5 36.5q0 18 -14 30t-42 12h-28q-9 0 -8 9l3 25q2 9 11 9h28q29 0 45.5 14.5t16.5 35.5q0 17 -12 28t-29 11q-24 0 -51 -27q-7 -5 -12 0l-16 21q-2 2 -2 6t4 6q39 40 89 40q37 0 60.5 -20t23.5 -53q0 -27 -18.5 -49t-39.5 -31v-2
q16 -7 30.5 -25.5t14.5 -41.5q0 -39 -33.5 -66.5t-82.5 -27.5q-59 0 -86 41z" />
    <glyph glyph-name="twothirds" unicode="&#x2154;" horiz-adv-x="636" 
d="M77 404q-9 0 -8 9l2 16l129 131q38 41 38 62q0 16 -11 28.5t-32 12.5q-25 0 -57 -30q-7 -5 -12 0l-14 18q-5 8 1 14q45 45 92 45q39 0 63 -22t24 -55q0 -45 -57 -102l-80 -83h103q8 0 6 -10l-3 -25q-2 -9 -9 -9h-175zM107 27l402 663q6 10 16 10h24q10 0 13.5 -8.5
t-2.5 -18.5l-404 -663q-5 -10 -16 -10h-22q-10 0 -13.5 8.5t2.5 18.5zM354 31q-6 6 3 11l18 20q8 5 12 -1q26 -26 56 -26q24 0 41.5 14.5t17.5 36.5q0 18 -14 30t-42 12h-28q-10 0 -8 9l3 25q1 9 11 9h28q29 0 45.5 14.5t16.5 35.5q0 17 -12 28t-29 11q-24 0 -51 -27
q-7 -5 -12 0l-16 21q-2 2 -2 6t4 6q39 40 89 40q37 0 60.5 -20t23.5 -53q0 -27 -18.5 -49t-39.5 -31v-2q16 -7 30.5 -25.5t14.5 -41.5q0 -39 -33.5 -66.5t-82.5 -27.5q-59 0 -86 41z" />
    <glyph glyph-name="oneeighth" unicode="&#x215b;" horiz-adv-x="605" 
d="M56 27l402 663q6 10 16 10h24q10 0 13.5 -8.5t-2.5 -18.5l-404 -663q-5 -10 -16 -10h-22q-10 0 -13.5 8.5t2.5 18.5zM125 404q-10 0 -8 9l29 210l-39 -11q-8 -2 -8 4l-2 20q0 7 5 11l71 53h29q9 0 7 -9l-40 -278q-2 -9 -9 -9h-35zM324 67q0 30 22 53t41 32v2
q-13 7 -24 23.5t-11 37.5q0 40 30.5 65.5t74.5 25.5q37 0 60.5 -20t23.5 -53q0 -50 -56 -79v-2q16 -8 29 -26t13 -41q0 -40 -32 -67.5t-83 -27.5q-40 0 -64 22t-24 55zM404 215q0 -32 35 -39q49 10 49 50q0 16 -10.5 26.5t-26.5 10.5q-19 0 -33 -14t-14 -34zM378 72
q0 -17 12 -28t29 -11q23 0 39 13.5t16 35.5q0 16 -11 29t-31 17q-24 -6 -39 -22t-15 -34z" />
    <glyph glyph-name="threeeighths" unicode="&#x215c;" horiz-adv-x="671" 
d="M155 394q-59 0 -86 41q-6 6 3 11l18 20q8 5 12 -1q26 -26 56 -26q24 0 41.5 14.5t17.5 36.5q0 18 -14 30t-42 12h-28q-9 0 -8 9l3 25q2 9 11 9h28q29 0 45.5 14.5t16.5 35.5q0 17 -12 28t-29 11q-24 0 -51 -27q-7 -5 -12 0l-16 21q-2 2 -2 6t4 6q39 40 89 40
q37 0 60.5 -20t23.5 -53q0 -27 -18.5 -49t-39.5 -31v-2q16 -7 30.5 -25.5t14.5 -41.5q0 -39 -33.5 -66.5t-82.5 -27.5zM121 27l402 663q6 10 16 10h24q10 0 13.5 -8.5t-2.5 -18.5l-404 -663q-5 -10 -16 -10h-22q-10 0 -13.5 8.5t2.5 18.5zM389 67q0 30 22 53t41 32v2
q-13 7 -24 23.5t-11 37.5q0 40 30.5 65.5t74.5 25.5q37 0 60.5 -20t23.5 -53q0 -50 -56 -79v-2q16 -8 29 -26t13 -41q0 -40 -32 -67.5t-83 -27.5q-40 0 -64 22t-24 55zM469 215q0 -32 35 -39q49 10 49 50q0 16 -10.5 26.5t-26.5 10.5q-19 0 -33 -14t-14 -34zM443 72
q0 -17 12 -28t29 -11q23 0 39 13.5t16 35.5q0 16 -11 29t-31 17q-24 -6 -39 -22t-15 -34z" />
    <glyph glyph-name="fiveeighths" unicode="&#x215d;" horiz-adv-x="676" 
d="M127 27l402 663q6 10 16 10h24q10 0 13.5 -8.5t-2.5 -18.5l-404 -663q-5 -10 -16 -10h-22q-10 0 -13.5 8.5t2.5 18.5zM162 394q-59 0 -86 38q-5 10 1 15l19 19q7 5 11 0q2 -3 9 -8.5t22 -11.5t29 -6q26 0 45 20t19 45q0 20 -13 33t-37 13h-69q-14 0 -12 16l18 124
q2 9 9 9h141q9 0 7 -9l-4 -27q0 -8 -9 -8h-103l-9 -60h42q42 0 66 -24t24 -59q0 -51 -33 -85t-87 -34zM395 67q0 30 22 53t41 32v2q-13 7 -24 23.5t-11 37.5q0 40 30.5 65.5t74.5 25.5q37 0 60.5 -20t23.5 -53q0 -50 -56 -79v-2q16 -8 29 -26t13 -41q0 -40 -32 -67.5
t-83 -27.5q-40 0 -64 22t-24 55zM475 215q0 -32 35 -39q49 10 49 50q0 16 -10.5 26.5t-26.5 10.5q-19 0 -33 -14t-14 -34zM449 72q0 -17 12 -28t29 -11q23 0 39 13.5t16 35.5q0 16 -11 29t-31 17q-24 -6 -39 -22t-15 -34z" />
    <glyph glyph-name="seveneighths" unicode="&#x215e;" horiz-adv-x="645" 
d="M96 27l402 663q6 10 16 10h24q10 0 13.5 -8.5t-2.5 -18.5l-404 -663q-5 -10 -16 -10h-22q-10 0 -13.5 8.5t2.5 18.5zM85 404q-8 0 -7 7l1 7l151 237h-123q-9 0 -7 9l4 27q1 9 9 9h181q9 0 7 -9l-2 -11l-164 -267q-6 -9 -14 -9h-36zM364 67q0 30 22 53t41 32v2
q-13 7 -24 23.5t-11 37.5q0 40 30.5 65.5t74.5 25.5q37 0 60.5 -20t23.5 -53q0 -50 -56 -79v-2q16 -8 29 -26t13 -41q0 -40 -32 -67.5t-83 -27.5q-40 0 -64 22t-24 55zM444 215q0 -32 35 -39q49 10 49 50q0 16 -10.5 26.5t-26.5 10.5q-19 0 -33 -14t-14 -34zM418 72
q0 -17 12 -28t29 -11q23 0 39 13.5t16 35.5q0 16 -11 29t-31 17q-24 -6 -39 -22t-15 -34z" />
    <glyph glyph-name="partialdiff" unicode="&#x2202;" horiz-adv-x="537" 
d="M40 190q0 100 65 179.5t168 79.5q36 0 67.5 -11.5t45.5 -23.5l14 -11q-3 51 -28 98.5t-58.5 80t-61.5 52.5t-46 27q-24 8 -13 30l13 23q9 16 21 10q38 -18 74.5 -44t78.5 -70t68 -112t26 -149q0 -35 -4 -66q-16 -132 -80 -212.5t-176 -80.5q-74 0 -124 57.5t-50 142.5z
M223 58q59 0 101.5 44t59.5 100t17 113q-2 3 -5.5 7.5t-16 16t-26.5 20.5t-37 16t-47 7q-68 0 -112.5 -59t-44.5 -131q0 -58 30 -96t81 -38z" />
    <glyph glyph-name="Delta" unicode="&#x2206;" horiz-adv-x="651" 
d="M22 0q-34 0 -11 39l362 662q5 9 14 9h5q8 0 10 -9l175 -664q7 -37 -23 -37h-532zM109 71h381l-117 491h-2z" />
    <glyph glyph-name="product" unicode="&#x220f;" horiz-adv-x="714" 
d="M67 15l95 670q2 15 15 15h477q13 0 11 -15l-95 -670q-2 -15 -15 -15h-51q-13 0 -11 15l87 614h-349l-87 -614q-2 -15 -15 -15h-51q-13 0 -11 15z" />
    <glyph glyph-name="summation" unicode="&#x2211;" horiz-adv-x="505" 
d="M11 15l3 20l319 327l-230 305l3 18q2 15 14 15h365q13 0 11 -15l-6 -42q-2 -15 -15 -15h-255l178 -231q11 -14 9 -26l-3 -21q-2 -16 -17 -31l-246 -248h255q13 0 11 -14l-6 -42q-2 -15 -15 -15h-365q-12 0 -10 15z" />
    <glyph glyph-name="minus" unicode="&#x2212;" 
d="M130 314q-7 0 -11 5.5t-3 13.5l4 28q1 7 7 13t13 6h344q7 0 11 -5.5t3 -13.5l-4 -28q-1 -7 -6.5 -13t-12.5 -6h-345z" />
    <glyph glyph-name="uni2215" unicode="&#x2215;" horiz-adv-x="140" 
d="M-98 10q-5 -10 -16 -10h-22q-10 0 -13.5 8.5t2.5 18.5l402 663q6 10 16 10h24q10 0 13.5 -8.5t-2.5 -18.5z" />
    <glyph glyph-name="uni2219" unicode="&#x2219;" horiz-adv-x="235" 
d="M106 204q-21 0 -35 14.5t-14 35.5q0 26 20 45t45 19q21 0 35 -14.5t14 -35.5q0 -26 -19.5 -45t-45.5 -19z" />
    <glyph glyph-name="radical" unicode="&#x221a;" horiz-adv-x="607" 
d="M147 0l-99 383q-5 17 11 17h42q11 0 11 -8l63 -261h3l302 559q6 10 14 10h138q13 0 11 -15l-5 -35q-2 -15 -15 -15h-99l-348 -635q-5 -10 -13 -10h-6q-7 0 -10 10z" />
    <glyph glyph-name="infinity" unicode="&#x221e;" 
d="M177 157q-44 0 -75.5 34.5t-31.5 84.5q0 65 42.5 112t103.5 47t91 -66q21 29 52.5 47.5t63.5 18.5q44 0 76 -35t32 -86q0 -63 -43.5 -110t-103.5 -47q-62 0 -92 66q-21 -29 -52.5 -47.5t-62.5 -18.5zM328 296q-1 -5 -1 -14q0 -30 17.5 -49.5t46.5 -19.5q33 0 60 28.5
t27 66.5q0 30 -18.5 50.5t-45.5 20.5q-32 0 -56.5 -24t-29.5 -59zM186 213q34 0 61 28.5t27 66.5q0 30 -18.5 50.5t-46.5 20.5q-35 0 -60.5 -29t-25.5 -68q0 -30 17.5 -49.5t45.5 -19.5z" />
    <glyph glyph-name="integral" unicode="&#x222b;" horiz-adv-x="456" 
d="M142 -78l87 618q12 85 55.5 127.5t110.5 42.5q61 0 95 -41q9 -11 0 -23l-19 -24q-11 -14 -23 -1q-8 9 -27 18t-34 9q-32 0 -56 -26.5t-32 -81.5l-86 -618q-25 -170 -167 -170q-60 0 -94 41q-10 12 -1 23l20 24q10 13 23 1q8 -9 27 -18t34 -9q32 0 56 26.5t31 81.5z" />
    <glyph glyph-name="approxequal" unicode="&#x2248;" 
d="M167 326l-18 18q-10 9 1 22q2 3 5 8.5t14.5 19.5t23.5 24.5t30.5 19t37.5 8.5q32 0 70 -38q23 -23 44 -23q38 0 65 51q8 15 21 4l19 -18q9 -8 -1 -22q-5 -9 -13.5 -22.5t-37.5 -35.5t-61 -22q-14 0 -28 6.5t-20 11.5t-21 19q-27 24 -44 24q-37 0 -67 -51q-7 -15 -20 -4z
M138 122l-18 18q-10 9 1 22q2 3 5 8.5t14.5 19.5t23.5 24.5t30.5 19t37.5 8.5q32 0 70 -38q23 -23 44 -23q38 0 65 51q8 15 21 4l19 -18q9 -8 -1 -22q-5 -9 -13.5 -22.5t-37.5 -35.5t-61 -22q-14 0 -28 6.5t-20 11.5t-21 19q-27 24 -44 24q-37 0 -67 -51q-7 -15 -20 -4z" />
    <glyph glyph-name="notequal" unicode="&#x2260;" 
d="M178 57q-15 8 -6 24l32 59h-62q-7 0 -12 5.5t-3 13.5l5 31q4 19 19 19h94l78 142h-152q-7 0 -11 5.5t-3 13.5l4 30q1 8 7 13.5t13 5.5h181l43 76q4 7 11.5 10t12.5 -1l6 -3q6 -3 7.5 -10t-2.5 -14l-33 -58h47q16 0 14 -19l-4 -30q-1 -8 -7 -13.5t-13 -5.5h-77l-77 -142
h134q7 0 12 -5.5t3 -13.5l-5 -31q-1 -8 -6.5 -13.5t-12.5 -5.5h-165l-43 -77q-8 -17 -24 -9z" />
    <glyph glyph-name="lessequal" unicode="&#x2264;" 
d="M131 382q-9 5 -6 17l1 5q2 11 12 16l371 194q8 4 11.5 1t2.5 -13l-5 -44q-2 -10 -10 -15l-293 -144l253 -141q7 -5 5 -15l-5 -38q-1 -9 -7 -12.5t-11 0.5zM91 61q-14 0 -14 19l4 28q1 7 7 13t13 6h343q15 0 13 -19l-4 -28q-1 -8 -6.5 -13.5t-12.5 -5.5h-343z" />
    <glyph glyph-name="greaterequal" unicode="&#x2265;" 
d="M126 193q-7 -4 -11 -0.5t-3 12.5l5 45q2 10 9 15l290 140l-250 145q-6 5 -4 15l5 37q3 21 18 12l319 -194q8 -5 6 -16l-1 -5q-3 -13 -12 -17zM104 61q-13 0 -13 19l4 28q1 8 6.5 13.5t12.5 5.5h343q7 0 11 -5.5t3 -13.5l-4 -28q-1 -7 -7 -13t-13 -6h-343z" />
    <glyph glyph-name="lozenge" unicode="&#x25ca;" horiz-adv-x="574" 
d="M234 -2l-159 308q-15 30 -10 55q4 20 27 47l240 293q7 9 14 9h2q8 0 13 -9l157 -292q16 -33 12 -56q-4 -19 -27 -50l-240 -305q-6 -8 -13 -8h-5q-7 0 -11 8zM260 92h2l201 271l-128 245h-2l-204 -256z" />
    <glyph glyph-name="commaaccent" unicode="&#xf6c3;" horiz-adv-x="263" 
d="M116 -125q0 24 18 39t43 15q27 0 42.5 -17t15.5 -49q0 -75 -63 -131q-7 -6 -15 0l-14 12q-9 8 2 17q39 37 39 75q0 7 -2 12q-7 -7 -27 -7q-18 0 -28.5 9.5t-10.5 24.5z" />
    <glyph glyph-name="uniF8FF" unicode="&#xf8ff;" horiz-adv-x="599" 
d="M50 30v640q0 30 30 30h439q30 0 30 -30v-640q0 -30 -30 -30h-439q-30 0 -30 30zM262 314q0 -12 14 -12h36q15 0 15 13v26q0 16 16.5 32t36 28.5t36 36.5t16.5 53q0 48 -35.5 79.5t-89.5 31.5q-24 0 -46.5 -6.5t-37 -15t-25.5 -17.5t-16 -15l-5 -7q-8 -12 0 -18l22 -22
q8 -6 17 0q1 1 7.5 7t9.5 9t11.5 8.5t15.5 8.5t18 5.5t22 2.5q29 0 45 -15t16 -37q0 -21 -15.5 -39t-34 -30t-34 -32.5t-15.5 -45.5v-29zM245 156q0 -20 14.5 -34t33.5 -14q20 0 34.5 14t14.5 34t-14.5 34t-34.5 14q-19 0 -33.5 -14t-14.5 -34z" />
    <glyph glyph-name="grave.cap" horiz-adv-x="272" 
d="M234 783l-132 64q-17 8 -7 24l21 34q10 14 24 3l125 -84q11 -6 3 -19l-12 -20q-6 -10 -22 -2z" />
    <glyph glyph-name="acute.cap" horiz-adv-x="272" 
d="M113 779q-17 -8 -22 8l-7 18q-4 12 8 19l148 84q4 4 13 2.5t12 -10.5l13 -33q6 -15 -8 -21z" />
    <glyph glyph-name="circumflex.cap" horiz-adv-x="336" 
d="M102 771q-15 -11 -22 3l-9 18q-8 16 5 24l119 94q9 7 18 7h3q9 0 19 -12l84 -91q8 -9 -2 -19l-14 -15q-12 -12 -21 -4l-78 66z" />
    <glyph glyph-name="caron.cap" horiz-adv-x="336" 
d="M190 764q-9 0 -19 12l-84 91q-8 9 2 19l14 15q12 12 21 4l78 -66l102 71q15 11 22 -3l9 -18q8 -15 -5 -24l-119 -94q-9 -7 -18 -7h-3z" />
    <glyph glyph-name="caron.alt" horiz-adv-x="336" 
d="M141 656q0 24 18 39t43 15q27 0 42.5 -17t15.5 -49q0 -75 -63 -131q-7 -6 -15 0l-14 12q-9 8 2 17q39 37 39 75q0 7 -2 12q-7 -7 -27 -7q-18 0 -28.5 9.5t-10.5 24.5z" />
    <glyph glyph-name="tilde.cap" horiz-adv-x="342" 
d="M90 795l-16 8q-11 7 -4 23q6 15 15 31t32 34.5t50 18.5q18 0 32 -11t21.5 -25t17 -25t18.5 -11q25 0 42 47q8 21 25 11l14 -8q13 -8 7 -23q-9 -29 -34 -57t-62 -28q-15 0 -29 11.5t-23 25t-18.5 25t-17.5 11.5q-12 0 -22.5 -10.5t-14 -17.5t-9.5 -22q-3 -7 -10 -9.5
t-14 1.5z" />
    <glyph glyph-name="dieresis.cap" horiz-adv-x="427" 
d="M342 788q-20 0 -31.5 12.5t-11.5 32.5q0 24 17 41t39 17q19 0 31.5 -13t12.5 -33q0 -23 -17.5 -40t-39.5 -17zM147 788q-20 0 -31.5 12.5t-11.5 32.5q0 24 17 41t39 17q19 0 31.5 -13t12.5 -33q0 -23 -17.5 -40t-39.5 -17z" />
    <glyph glyph-name="macron.cap" horiz-adv-x="373" 
d="M106 821q-16 0 -14 18l3 21q2 19 20 19h230q17 0 14 -19l-2 -21q-4 -18 -20 -18h-231z" />
    <glyph glyph-name="breve.cap" horiz-adv-x="311" 
d="M186 771q-44 0 -75.5 33t-30.5 81q0 20 16 20h19q13 0 15 -17q10 -64 62 -64q23 0 44.5 18.5t33.5 45.5q8 17 19 17h25q17 0 10 -20q-15 -50 -51.5 -82t-86.5 -32z" />
    <glyph glyph-name="ring.cap" horiz-adv-x="261" 
d="M158 758q-37 0 -61 27t-24 67q0 52 34 88t81 36q36 0 60.5 -27.5t24.5 -66.5q0 -51 -34 -87.5t-81 -36.5zM164 806q23 0 41 21t18 48q0 22 -11 36.5t-31 14.5q-23 0 -41.5 -20t-18.5 -46q0 -22 11.5 -38t31.5 -16z" />
    <glyph glyph-name="hungarumlaut.cap" horiz-adv-x="353" 
d="M232 769q-7 0 -11 6t-1 13l63 141q8 19 20 19h40q12 0 15.5 -7.5t-2.5 -17.5l-90 -139q-9 -15 -19 -15h-15zM83 769q-7 0 -11 6t-1 13l63 141q8 19 20 19h40q12 0 15.5 -7.5t-2.5 -17.5l-90 -139q-9 -15 -19 -15h-15z" />
    <glyph glyph-name="dotaccent.cap" horiz-adv-x="197" 
d="M130 797q-21 0 -35 13.5t-14 33.5q0 26 19.5 44.5t44.5 18.5q20 0 33.5 -13.5t13.5 -33.5q0 -25 -18.5 -44t-43.5 -19z" />
    <glyph glyph-name="cedilla.cap" horiz-adv-x="247" 
d="M126 3h57l-53 -70q12 4 25 4q30 0 50.5 -19t20.5 -54q0 -46 -35 -75t-85 -29q-52 0 -81 31q-7 9 3 21l9 12q11 16 22 5q22 -20 47 -20q27 0 45.5 14t18.5 39q0 37 -48 37q-25 0 -45 -10q-6 -2 -10.5 4t-1.5 11z" />
    <glyph glyph-name="ogonek.cap" horiz-adv-x="276" 
d="M215 3q-128 -71 -128 -145q0 -42 44 -42q28 0 67 26q6 5 11 3.5t4 -8.5l-4 -36q-2 -16 -15 -24q-39 -21 -83 -21q-42 0 -65.5 24t-23.5 61q0 55 34.5 94t93.5 74z" />
    <glyph glyph-name="commaaccent.alt" horiz-adv-x="263" 
d="M198 606q0 -24 -18 -39t-43 -15q-27 0 -42.5 17t-15.5 49q0 75 63 131q7 6 15 0l14 -12q9 -8 -2 -17q-39 -37 -39 -75q0 -7 2 -12q7 7 27 7q18 0 28.5 -9.5t10.5 -24.5z" />
    <glyph glyph-name="commaaccent.cap" horiz-adv-x="263" 
d="M116 -125q0 24 18 39t43 15q27 0 42.5 -17t15.5 -49q0 -75 -63 -131q-7 -6 -15 0l-14 12q-9 8 2 17q39 37 39 75q0 7 -2 12q-7 -7 -27 -7q-18 0 -28.5 9.5t-10.5 24.5z" />
    <glyph glyph-name="brokenbar.case" horiz-adv-x="207" 
d="M125 463q-7 0 -11.5 5.5t-3.5 12.5l47 330q1 8 7 13.5t13 5.5h7q16 0 13 -19l-46 -330q-1 -7 -7 -12.5t-13 -5.5h-6zM69 181q1 8 6.5 13.5t12.5 5.5h8q16 0 13 -19l-46 -331q-4 -18 -20 -18h-6q-7 0 -11.5 5.5t-3.5 12.5z" />
    <glyph glyph-name="zero.tf" 
d="M258 -10q-99 0 -150 66.5t-51 189.5q0 212 84 338t218 126q99 0 150 -67t51 -191q0 -211 -84.5 -336.5t-217.5 -125.5zM267 57q94 0 154 104t60 286q0 196 -131 196q-95 0 -154.5 -105t-59.5 -287q0 -194 131 -194z" />
    <glyph glyph-name="one.tf" 
d="M263 61l75 527l-152 -82q-17 -9 -23 2l-12 26q-7 15 7 23l224 138q7 5 19 5h9q7 0 12 -5.5t4 -13.5l-87 -620h145q20 0 17 -20l-3 -22q-3 -19 -23 -19h-399q-8 0 -13 5.5t-4 13.5l3 22q3 20 23 20h178z" />
    <glyph glyph-name="two.tf" 
d="M160 69v-2h297q8 0 13 -6t4 -14l-4 -27q-1 -8 -7.5 -14t-14.5 -6h-391q-8 0 -13.5 6t-4.5 14l3 20q1 9 9 17q108 105 284 266q36 34 58 57t47.5 66t25.5 80q0 47 -29 80.5t-90 33.5q-84 0 -162 -82q-13 -14 -27 0l-22 24q-5 4 -4 12.5t7 14.5q95 101 212 101
q90 0 142 -50.5t52 -120.5q0 -71 -40.5 -129t-119.5 -132z" />
    <glyph glyph-name="three.tf" 
d="M256 317h-58q-20 0 -17 23l4 25q3 22 25 22h57q73 1 130 38t57 108q0 50 -35 79.5t-88 29.5q-75 0 -146 -71q-15 -13 -27 -2l-25 23q-12 10 3 27q88 91 204 91q87 0 140.5 -45t53.5 -120q0 -60 -35.5 -110t-95.5 -79l-1 -3q39 -17 70 -54t31 -89q0 -97 -72.5 -158.5
t-182.5 -61.5q-54 0 -100.5 19.5t-67 37.5t-34.5 36q-9 14 4 25l26 22q13 11 27 -5q61 -71 150 -71q70 0 121 41t51 108q0 50 -42.5 82t-126.5 32z" />
    <glyph glyph-name="four.tf" 
d="M42 159q-18 0 -16 19l4 28q1 10 8 18l402 473q10 13 27 13h21q7 0 11 -6t3 -14l-65 -468h75q17 0 15 -18l-3 -26q-1 -7 -7 -13t-14 -6h-74l-20 -139q-4 -20 -20 -20h-39q-8 0 -12 6t-3 14l20 139h-313zM122 226v-4h245l51 354h-3z" />
    <glyph glyph-name="five.tf" 
d="M193 442h120q102 0 156.5 -49.5t54.5 -133.5q0 -111 -75 -190t-193 -79q-121 0 -189 88q-15 19 2 35l24 21q15 15 25 -1q54 -77 141 -77q83 0 135.5 58t52.5 135q0 55 -36.5 89.5t-107.5 34.5h-157q-14 0 -21.5 11t-5.5 25l39 272q1 8 7.5 13.5t14.5 5.5h311
q8 0 13.5 -5.5t4.5 -13.5l-4 -30q-1 -8 -8 -14t-15 -6h-262z" />
    <glyph glyph-name="six.tf" 
d="M180 403q8 5 22 12.5t56 20.5t82 13q82 0 138.5 -53.5t56.5 -139.5q0 -103 -75 -184.5t-183 -81.5q-102 0 -155.5 66t-53.5 164q0 172 114.5 303t291.5 194q14 5 21 -10l11 -27q9 -19 -17 -29q-96 -34 -181 -97t-128 -151zM281 58q72 0 126 57t54 131q0 59 -39 97.5
t-103 38.5q-95 0 -165 -67q-14 -44 -14 -90q0 -71 34.5 -119t106.5 -48z" />
    <glyph glyph-name="seven.tf" 
d="M481 629v2h-344q-7 0 -12 6.5t-4 13.5l4 30q1 7 7.5 13t14.5 6h424q17 0 17 -17q0 -6 -5 -16l-358 -640q-15 -27 -38 -27h-32q-7 0 -11.5 5t-4.5 11q0 11 7 24z" />
    <glyph glyph-name="eight.tf" 
d="M52 159q0 65 42.5 119t108.5 82v4q-34 16 -59.5 52t-25.5 82q0 93 69 152.5t167 59.5q86 0 140 -44t54 -117q0 -65 -40.5 -114.5t-90.5 -70.5v-4q38 -17 70 -57.5t32 -93.5q0 -93 -73.5 -156t-185.5 -63q-96 0 -152 47t-56 122zM315 397q75 7 115 45.5t40 95.5
q0 49 -34 79.5t-90 30.5q-61 0 -107 -42.5t-46 -106.5q0 -91 122 -102zM304 320q-66 -8 -120 -49.5t-54 -107.5q0 -51 38 -81.5t96 -30.5q72 0 124.5 40t52.5 105q0 47 -36.5 82.5t-100.5 41.5z" />
    <glyph glyph-name="nine.tf" 
d="M437 297q-8 -5 -22 -12.5t-56 -20.5t-82 -13q-82 0 -138.5 53.5t-56.5 139.5q0 103 75 184.5t183 81.5q102 0 155.5 -66t53.5 -164q0 -178 -117 -309t-289 -188q-15 -6 -21 10l-12 29q-9 19 17 29q100 36 185.5 97.5t124.5 148.5zM336 642q-72 0 -126 -57t-54 -131
q0 -59 39 -97.5t103 -38.5q95 0 165 67q14 44 14 90q0 71 -34.5 119t-106.5 48z" />
    <glyph glyph-name="zero.denom" horiz-adv-x="337" 
d="M35 112q0 89 35.5 141t100.5 52q43 0 68.5 -33t25.5 -89q0 -89 -35.5 -141t-100.5 -52q-43 0 -68.5 33t-25.5 89zM89 115q0 -77 46 -77q35 0 55.5 38.5t20.5 102.5q0 78 -46 78q-35 0 -55.5 -39t-20.5 -103z" />
    <glyph glyph-name="one.denom" horiz-adv-x="218" 
d="M56 9l29 210l-39 -11q-8 -2 -8 4l-2 20q0 7 5 11l71 53h29q9 0 7 -9l-40 -278q-2 -9 -9 -9h-35q-10 0 -8 9z" />
    <glyph glyph-name="two.denom" horiz-adv-x="304" 
d="M15 9l2 16l129 131q38 41 38 62q0 16 -11 28.5t-32 12.5q-25 0 -57 -30q-7 -5 -12 0l-14 18q-5 8 1 14q45 45 92 45q39 0 63 -22t24 -55q0 -45 -57 -102l-80 -83h103q8 0 6 -10l-3 -25q-2 -9 -9 -9h-175q-9 0 -8 9z" />
    <glyph glyph-name="three.denom" horiz-adv-x="306" 
d="M18 31q-6 6 3 11l18 20q8 5 12 -1q26 -26 56 -26q24 0 41.5 14.5t17.5 36.5q0 18 -14 30t-42 12h-28q-10 0 -8 9l3 25q1 9 11 9h28q29 0 45.5 14.5t16.5 35.5q0 17 -12 28t-29 11q-24 0 -51 -27q-7 -5 -12 0l-16 21q-2 2 -2 6t4 6q39 40 89 40q37 0 60.5 -20t23.5 -53
q0 -27 -18.5 -49t-39.5 -31v-2q16 -7 30.5 -25.5t14.5 -41.5q0 -39 -33.5 -66.5t-82.5 -27.5q-59 0 -86 41z" />
    <glyph glyph-name="four.denom" horiz-adv-x="320" 
d="M14 59q-8 0 -6 9l4 29l181 196q3 3 7 3h22q3 0 6 -2.5t2 -6.5l-26 -185h36q7 0 7 -8l-3 -26q-2 -8 -10 -8h-36l-7 -51q-2 -9 -11 -9h-32q-3 0 -6 2.5t-2 6.5l7 50h-133zM74 103h81l16 111z" />
    <glyph glyph-name="five.denom" horiz-adv-x="314" 
d="M29 28q-5 10 1 15l19 19q7 5 11 0q2 -3 9 -8.5t22 -11.5t29 -6q26 0 45 20t19 45q0 20 -13 33t-37 13h-69q-14 0 -12 16l18 124q2 9 9 9h141q9 0 7 -9l-4 -27q0 -8 -9 -8h-103l-9 -60h42q42 0 66 -24t24 -59q0 -51 -33 -85t-87 -34q-59 0 -86 38z" />
    <glyph glyph-name="six.denom" horiz-adv-x="322" 
d="M35 92q0 42 15 78.5t35 59t47 41.5t44 27t33 13q9 3 11 -6l6 -23q3 -10 -10 -13q-23 -5 -62 -33t-53 -61q23 17 58 17q33 0 56 -22.5t23 -63.5q0 -47 -34.5 -81.5t-81.5 -34.5q-40 0 -63.5 30.5t-23.5 71.5zM129 37q24 0 42 20t18 46q0 20 -13 33.5t-32 13.5t-36 -11
t-25 -23q-3 -28 8.5 -53.5t37.5 -25.5z" />
    <glyph glyph-name="seven.denom" horiz-adv-x="298" 
d="M32 7l1 7l151 237h-123q-9 0 -7 9l4 27q1 9 9 9h181q9 0 7 -9l-2 -11l-164 -267q-6 -9 -14 -9h-36q-8 0 -7 7z" />
    <glyph glyph-name="eight.denom" horiz-adv-x="316" 
d="M28 67q0 30 22 53t41 32v2q-13 7 -24 23.5t-11 37.5q0 40 30.5 65.5t74.5 25.5q37 0 60.5 -20t23.5 -53q0 -50 -56 -79v-2q16 -8 29 -26t13 -41q0 -40 -32 -67.5t-83 -27.5q-40 0 -64 22t-24 55zM143 176q49 10 49 50q0 16 -10.5 26.5t-26.5 10.5q-19 0 -33 -14t-14 -34
q0 -32 35 -39zM82 72q0 -17 12 -28t29 -11q23 0 39 13.5t16 35.5q0 16 -11 29t-31 17q-24 -6 -39 -22t-15 -34z" />
    <glyph glyph-name="nine.denom" horiz-adv-x="305" 
d="M49 12q-3 10 10 13q23 5 62 33t53 61q-23 -17 -58 -17q-33 0 -56 22.5t-23 63.5q0 47 34.5 81.5t81.5 34.5q41 0 64 -30.5t23 -71.5q0 -52 -20.5 -94t-53.5 -67.5t-55.5 -38t-44.5 -19.5q-9 -3 -11 6zM131 144q19 0 36 11t25 23q3 28 -8.5 53.5t-37.5 25.5q-24 0 -42 -20
t-18 -46q0 -20 13 -33.5t32 -13.5z" />
    <glyph glyph-name="zero.num" horiz-adv-x="307" 
d="M170 394q-43 0 -68.5 33t-25.5 89q0 89 35.5 141t100.5 52q43 0 68.5 -33t25.5 -89q0 -89 -35.5 -141t-100.5 -52zM176 442q35 0 55.5 38.5t20.5 102.5q0 78 -46 78q-35 0 -55.5 -39t-20.5 -103q0 -77 46 -77z" />
    <glyph glyph-name="one.num" horiz-adv-x="182" 
d="M106 404q-10 0 -8 9l29 210l-39 -11q-8 -2 -8 4l-2 20q0 7 5 11l71 53h29q9 0 7 -9l-40 -278q-2 -9 -9 -9h-35z" />
    <glyph glyph-name="two.num" horiz-adv-x="267" 
d="M60 404q-9 0 -8 9l2 16l129 131q38 41 38 62q0 16 -11 28.5t-32 12.5q-25 0 -57 -30q-7 -5 -12 0l-14 18q-5 8 1 14q45 45 92 45q39 0 63 -22t24 -55q0 -45 -57 -102l-80 -83h103q8 0 6 -10l-3 -25q-2 -9 -9 -9h-175z" />
    <glyph glyph-name="three.num" horiz-adv-x="268" 
d="M140 394q-59 0 -86 41q-6 6 3 11l18 20q8 5 12 -1q26 -26 56 -26q24 0 41.5 14.5t17.5 36.5q0 18 -14 30t-42 12h-28q-10 0 -8 9l3 25q1 9 11 9h28q29 0 45.5 14.5t16.5 35.5q0 17 -12 28t-29 11q-24 0 -51 -27q-7 -5 -12 0l-16 21q-2 2 -2 6t4 6q39 40 89 40
q37 0 60.5 -20t23.5 -53q0 -27 -18.5 -49t-39.5 -31v-2q16 -7 30.5 -25.5t14.5 -41.5q0 -39 -33.5 -66.5t-82.5 -27.5z" />
    <glyph glyph-name="four.num" horiz-adv-x="296" 
d="M193 404q-3 0 -6 2.5t-2 6.5l7 50h-133q-8 0 -6 9l4 29l181 196q3 3 7 3h22q3 0 6 -2.5t2 -6.5l-26 -185h36q7 0 7 -8l-3 -26q-2 -8 -10 -8h-36l-7 -51q-2 -9 -11 -9h-32zM119 507h81l16 111z" />
    <glyph glyph-name="five.num" horiz-adv-x="272" 
d="M150 394q-59 0 -86 38q-5 10 1 15l19 19q7 5 11 0q2 -3 9 -8.5t22 -11.5t29 -6q26 0 45 20t19 45q0 20 -13 33t-37 13h-69q-14 0 -12 16l18 124q2 9 9 9h141q9 0 7 -9l-4 -27q0 -8 -9 -8h-103l-9 -60h42q42 0 66 -24t24 -59q0 -51 -33 -85t-87 -34z" />
    <glyph glyph-name="six.num" horiz-adv-x="275" 
d="M156 394q-40 0 -63.5 30.5t-23.5 71.5q0 42 15 78.5t35 59t47 41.5t44 27t33 13q9 3 11 -6l6 -23q3 -10 -10 -13q-23 -5 -62 -33t-53 -61q23 17 58 17q33 0 56 -22.5t23 -63.5q0 -47 -34.5 -81.5t-81.5 -34.5zM163 441q24 0 42 20t18 46q0 20 -13 33.5t-32 13.5t-36 -11
t-25 -23q-3 -28 8.5 -53.5t37.5 -25.5z" />
    <glyph glyph-name="seven.num" horiz-adv-x="250" 
d="M70 404q-8 0 -7 7l1 7l151 237h-123q-9 0 -7 9l4 27q1 9 9 9h181q9 0 7 -9l-2 -11l-164 -267q-6 -9 -14 -9h-36z" />
    <glyph glyph-name="eight.num" horiz-adv-x="280" 
d="M154 394q-40 0 -64 22t-24 55q0 30 22 53t41 32v2q-13 7 -24 23.5t-11 37.5q0 40 30.5 65.5t74.5 25.5q37 0 60.5 -20t23.5 -53q0 -50 -56 -79v-2q16 -8 29 -26t13 -41q0 -40 -32 -67.5t-83 -27.5zM181 580q49 10 49 50q0 16 -10.5 26.5t-26.5 10.5q-19 0 -33 -14
t-14 -34q0 -32 35 -39zM161 437q23 0 39 13.5t16 35.5q0 16 -11 29t-31 17q-24 -6 -39 -22t-15 -34q0 -17 12 -28t29 -11z" />
    <glyph glyph-name="nine.num" horiz-adv-x="275" 
d="M107 387q-9 -3 -11 6l-6 23q-3 10 10 13q23 5 62 33t53 61q-23 -17 -58 -17q-33 0 -56 22.5t-23 63.5q0 47 34.5 81.5t81.5 34.5q40 0 63.5 -30.5t23.5 -71.5q0 -52 -20.5 -94t-53.5 -67.5t-55.5 -38t-44.5 -19.5zM172 548q19 0 36 11t25 23q3 28 -8.5 53.5t-37.5 25.5
q-24 0 -42 -20t-18 -46q0 -20 13 -33.5t32 -13.5z" />
    <glyph glyph-name="parenleft.case" horiz-adv-x="325" 
d="M57 238q0 134 26 245t69 181.5t95.5 110.5t108.5 43q15 2 15 -10l-2 -27q0 -15 -12 -17q-61 -15 -108 -71t-72 -134.5t-37.5 -160t-12.5 -162.5q0 -102 28.5 -188.5t83.5 -111.5q10 -5 7 -17l-6 -27q-3 -13 -18 -10q-64 11 -114.5 110t-50.5 246z" />
    <glyph glyph-name="parenright.case" horiz-adv-x="325" 
d="M286 461q0 -134 -26 -245t-69 -181.5t-95.5 -110.5t-108.5 -43q-15 -1 -15 10l2 27q0 15 12 17q61 15 108 71t72 134.5t37.5 160t12.5 162.5q0 102 -28.5 188.5t-83.5 111.5q-10 5 -7 17l6 27q3 13 18 10q64 -11 114.5 -110t50.5 -246z" />
    <glyph glyph-name="hyphen.case" horiz-adv-x="364" 
d="M90 310q-8 0 -12 5.5t-3 12.5l3 19q3 19 20 19h191q17 0 14 -19l-3 -19q-4 -18 -20 -18h-190z" />
    <glyph glyph-name="bracketleft.case" horiz-adv-x="318" 
d="M100 -55h123q16 0 14 -18l-3 -26q-1 -7 -7 -13t-13 -6h-173q-7 0 -11.5 5.5t-3.5 13.5l127 900q1 7 6.5 13t12.5 6h174q7 0 11 -5.5t3 -13.5l-3 -25q-1 -8 -7 -13.5t-13 -5.5h-123z" />
    <glyph glyph-name="bracketright.case" horiz-adv-x="319" 
d="M1 -55h122l114 812h-122q-7 0 -11.5 5.5t-3.5 13.5l4 25q4 19 19 19h174q7 0 11 -5.5t3 -13.5l-126 -900q-4 -19 -20 -19h-173q-7 0 -11.5 6t-3.5 13l4 26q4 18 20 18z" />
    <glyph glyph-name="braceleft.case" horiz-adv-x="376" 
d="M85 94l20 146q4 30 -14 52t-37 26q-5 1 -9 6t-3 11l5 31q2 13 16 15q21 4 45 26t28 52l20 146q9 65 36.5 111.5t65.5 70t75 33.5t76 10q17 0 16 -17l-3 -19q-2 -16 -15 -18q-168 -20 -189 -171l-16 -118q-6 -46 -24.5 -76.5t-32 -39.5t-33.5 -18l-1 -7q8 -4 13 -7t14 -11
t13 -16t10 -23.5t4.5 -33t-2.5 -43.5l-16 -118q-11 -79 24 -119.5t117 -50.5q12 -2 9 -17l-3 -20q-2 -17 -20 -17q-37 0 -72 12.5t-65 37.5t-45 70.5t-7 103.5z" />
    <glyph glyph-name="bar.case" horiz-adv-x="200" 
d="M19 -150l135 961q1 8 7 13.5t13 5.5h7q16 0 13 -19l-134 -961q-4 -18 -20 -18h-6q-7 0 -11.5 5.5t-3.5 12.5z" />
    <glyph glyph-name="braceright.case" horiz-adv-x="376" 
d="M192 212q6 46 24.5 76.5t32 39.5t33.5 18l1 7q-8 4 -13 7t-14 11t-13 16t-10 23.5t-4.5 33t2.5 43.5l16 118q11 78 -27.5 119.5t-113.5 51.5q-11 2 -9 18l3 19q3 17 20 17q37 0 72 -13.5t64.5 -39.5t44.5 -71t8 -101l-19 -146q-4 -31 13 -52.5t37 -25.5q14 -2 12 -15
l-5 -31q-2 -15 -16 -17q-21 -4 -45 -25.5t-28 -52.5l-20 -146q-9 -65 -36.5 -111.5t-65.5 -69.5t-74.5 -33t-75.5 -10q-7 0 -12 5t-4 12l3 20q3 15 15 17q167 12 188 170z" />
    <glyph glyph-name="guilsinglleft.case" horiz-adv-x="261" 
d="M130 159l-72 155q-6 11 3 24l114 148q10 12 20 12h22q11 0 13.5 -9.5t-4.5 -21.5l-86 -144l39 -142q3 -13 -1.5 -21.5t-16.5 -8.5h-18q-9 0 -13 8z" />
    <glyph glyph-name="guilsinglright.case" horiz-adv-x="261" 
d="M55 151q-11 0 -13.5 9.5t4.5 21.5l86 144l-39 142q-3 13 1.5 21.5t16.5 8.5h18q9 0 13 -8l72 -155q6 -11 -3 -24l-114 -148q-10 -12 -20 -12h-22z" />
    <glyph glyph-name="guillemotleft.case" horiz-adv-x="413" 
d="M282 159l-72 155q-6 11 3 24l114 148q10 12 20 12h22q11 0 13.5 -9.5t-4.5 -21.5l-86 -144l39 -142q3 -13 -1.5 -21.5t-16.5 -8.5h-18q-9 0 -13 8zM130 159l-72 155q-6 11 3 24l114 148q10 12 20 12h22q11 0 13.5 -9.5t-4.5 -21.5l-86 -144l39 -142q3 -13 -1.5 -21.5
t-16.5 -8.5h-18q-9 0 -13 8z" />
    <glyph glyph-name="guillemotright.case" horiz-adv-x="413" 
d="M199 182l86 144l-39 142q-3 13 1.5 21.5t16.5 8.5h18q9 0 13 -8l72 -155q6 -11 -3 -24l-114 -148q-10 -12 -20 -12h-22q-11 0 -13.5 9.5t4.5 21.5zM55 151q-11 0 -13.5 9.5t4.5 21.5l86 144l-39 142q-3 13 1.5 21.5t16.5 8.5h18q9 0 13 -8l72 -155q6 -11 -3 -24
l-114 -148q-10 -12 -20 -12h-22z" />
    <glyph glyph-name="endash.case" horiz-adv-x="502" 
d="M86 313q-8 0 -12 5.5t-3 12.5l2 11q3 19 20 19h335q18 0 15 -19l-2 -11q-4 -18 -19 -18h-336z" />
    <glyph glyph-name="emdash.case" horiz-adv-x="700" 
d="M86 313q-8 0 -12 5.5t-3 12.5l2 11q3 19 20 19h533q18 0 15 -19l-2 -11q-4 -18 -19 -18h-534z" />
    <glyph glyph-name="bullet.case" horiz-adv-x="351" 
d="M162 209q-36 0 -60 27t-24 65q0 49 35 85.5t79 36.5q38 0 62.5 -27.5t24.5 -67.5q0 -48 -35.5 -83.5t-81.5 -35.5z" />
    <glyph glyph-name="periodcentered.case" horiz-adv-x="230" 
d="M115 294q-21 0 -35 14.5t-14 35.5q0 26 20 45t45 19q21 0 35 -14.5t14 -35.5q0 -26 -19.5 -45t-45.5 -19z" />
    </font>
</defs>
</svg>
